<?xml version="1.0" standalone="no"?>
<!DOCTYPE svg PUBLIC "-//W3C//DTD SVG 1.1//EN" "http://www.w3.org/Graphics/SVG/1.1/DTD/svg11.dtd" >
<svg xmlns="http://www.w3.org/2000/svg" xmlns:xlink="http://www.w3.org/1999/xlink" version="1.1">
<metadata>
Created by FontForge 20161003 at Thu Aug 31 03:16:00 2017
 By www-data
Copyright 2011 The Comfortaa Project Authors (aajohan@gmail.com), with Reserved Font Name "Comfortaa".
</metadata>
<defs>
<font id="Comfortaa-Regular" horiz-adv-x="677" >
  <font-face 
    font-family="Comfortaa"
    font-weight="400"
    font-stretch="normal"
    units-per-em="1000"
    panose-1="0 0 5 0 0 0 0 0 0 0"
    ascent="800"
    descent="-200"
    x-height="547"
    cap-height="781"
    bbox="-850 -289 1271 1264"
    underline-thickness="50"
    underline-position="-100"
    unicode-range="U+000D-FB02"
  />
<missing-glyph horiz-adv-x="625" 
d="M577.5 772.5q8.5 -8.5 8.5 -20.5v-723q0 -12 -8.5 -20.5t-20.5 -8.5h-489q-13 0 -21 8.5t-8 20.5v723q0 12 8 20.5t21 8.5h489q12 0 20.5 -8.5zM93 54h439v673h-439v-673zM380 575q-26 24 -66 24q-43 0 -69 -26t-26 -70q0 -13 -8.5 -21.5t-22.5 -8.5q-13 0 -22 8.5
t-9 21.5q0 68 44 111t113 43q66 0 109 -41t43 -104q0 -35 -12 -60.5t-27 -41.5t-54 -52q-30 -27 -30 -75q0 -13 -9 -22t-22 -9t-22 9t-9 22q0 28 13.5 58.5t35.5 51.5l15 14q32 29 46.5 51t14.5 56q0 37 -26 61zM342.5 203.5q12.5 -12.5 12.5 -30.5t-12.5 -30.5t-30.5 -12.5
t-30.5 12.5t-12.5 30.5q0 17 12.5 30t30.5 13t30.5 -12.5z" />
    <glyph glyph-name="f_f" unicode="ff" horiz-adv-x="732" 
d="M231.5 667q-33.5 -44 -33.5 -117v-23h120q16 0 25.5 -9.5t9.5 -24.5q0 -14 -9.5 -23.5t-25.5 -9.5h-120v-421q0 -18 -10.5 -28.5t-29.5 -10.5q-16 0 -26.5 10.5t-10.5 28.5v421h-64q-16 0 -25.5 9.5t-9.5 23.5q0 15 9.5 24.5t25.5 9.5h64v19q0 107 55 171t155 64
q17 0 28 -10t11 -25t-11 -25t-28 -10q-66 0 -99.5 -44zM597.5 667q-33.5 -44 -33.5 -117v-23h120q16 0 25.5 -9.5t9.5 -24.5q0 -14 -9.5 -23.5t-25.5 -9.5h-120v-421q0 -18 -10.5 -28.5t-29.5 -10.5q-16 0 -26.5 10.5t-10.5 28.5v421h-64q-16 0 -25.5 9.5t-9.5 23.5
q0 15 9.5 24.5t25.5 9.5h64v19q0 107 55 171t155 64q17 0 28 -10t11 -25t-11 -25t-28 -10q-66 0 -99.5 -44z" />
    <glyph glyph-name="f_f_i" unicode="ffi" horiz-adv-x="1021" 
d="M231.5 667q-33.5 -44 -33.5 -117v-23h120q16 0 25.5 -9.5t9.5 -24.5q0 -14 -9.5 -23.5t-25.5 -9.5h-120v-421q0 -18 -10.5 -28.5t-29.5 -10.5q-16 0 -26.5 10.5t-10.5 28.5v421h-64q-16 0 -25.5 9.5t-9.5 23.5q0 15 9.5 24.5t25.5 9.5h64v19q0 107 55 171t155 64
q17 0 28 -10t11 -25t-11 -25t-28 -10q-66 0 -99.5 -44zM597.5 667q-33.5 -44 -33.5 -117v-23h120q16 0 25.5 -9.5t9.5 -24.5q0 -14 -9.5 -23.5t-25.5 -9.5h-120v-421q0 -18 -10.5 -28.5t-29.5 -10.5q-16 0 -26.5 10.5t-10.5 28.5v421h-64q-16 0 -25.5 9.5t-9.5 23.5
q0 15 9.5 24.5t25.5 9.5h64v19q0 107 55 171t155 64q17 0 28 -10t11 -25t-11 -25t-28 -10q-66 0 -99.5 -44zM849 11q-11 11 -11 28v469q0 17 11 28t28 11t27.5 -11t10.5 -28v-469q0 -17 -10.5 -28t-27.5 -11t-28 11zM837.5 667q-15.5 16 -15.5 39q0 24 16 39t39 15
q22 0 38 -15t16 -39q0 -23 -16 -39t-39 -16t-38.5 16z" />
    <glyph glyph-name="f_f_l" unicode="ffl" horiz-adv-x="1014" 
d="M231.5 667q-33.5 -44 -33.5 -117v-23h120q16 0 25.5 -9.5t9.5 -24.5q0 -14 -9.5 -23.5t-25.5 -9.5h-120v-421q0 -18 -10.5 -28.5t-29.5 -10.5q-16 0 -26.5 10.5t-10.5 28.5v421h-64q-16 0 -25.5 9.5t-9.5 23.5q0 15 9.5 24.5t25.5 9.5h64v19q0 107 55 171t155 64
q17 0 28 -10t11 -25t-11 -25t-28 -10q-66 0 -99.5 -44zM597.5 667q-33.5 -44 -33.5 -117v-23h120q16 0 25.5 -9.5t9.5 -24.5q0 -14 -9.5 -23.5t-25.5 -9.5h-120v-421q0 -18 -10.5 -28.5t-29.5 -10.5q-16 0 -26.5 10.5t-10.5 28.5v421h-64q-16 0 -25.5 9.5t-9.5 23.5
q0 15 9.5 24.5t25.5 9.5h64v19q0 107 55 171t155 64q17 0 28 -10t11 -25t-11 -25t-28 -10q-66 0 -99.5 -44zM840.5 48.5q-38.5 48.5 -38.5 124.5v570q0 17 11 27.5t27 10.5q17 0 27.5 -10.5t10.5 -27.5v-570q0 -43 17.5 -70t44.5 -27h25q15 0 24 -10.5t9 -27.5t-12.5 -27.5
t-32.5 -10.5h-13q-61 0 -99.5 48.5z" />
    <glyph glyph-name="fi" unicode="fi" horiz-adv-x="606" 
d="M344.5 517.5q9.5 -9.5 9.5 -24.5q0 -14 -9.5 -23.5t-25.5 -9.5h-121v-421q0 -16 -11 -27.5t-28 -11.5q-16 0 -27 11t-11 28v421h-64q-16 0 -25.5 9.5t-9.5 23.5q0 15 9.5 24.5t25.5 9.5h64v25q0 107 57.5 169.5t180.5 62.5q64 0 110.5 -20.5t46.5 -54.5q0 -43 -49 -43
q-14 0 -26.5 6t-29.5 19q-19 15 -36.5 23.5t-39.5 8.5q-65 0 -101 -40t-36 -131v-25h121q16 0 25.5 -9.5zM496.5 536q10.5 -11 10.5 -28v-469q0 -17 -10.5 -28t-27.5 -11t-28 11t-11 28v469q0 17 11 28t28 11t27.5 -11z" />
    <glyph glyph-name="fl" unicode="fl" horiz-adv-x="642" 
d="M616.5 65.5q9.5 -10.5 9.5 -27.5t-13 -27.5t-33 -10.5h-12q-40 0 -71.5 22t-49.5 61.5t-18 89.5v523q-46 14 -89 14q-142 0 -142 -148v-35h112q16 0 25.5 -9.5t9.5 -24.5q0 -14 -9.5 -23.5t-25.5 -9.5h-112v-421q0 -16 -11 -27.5t-28 -11.5q-16 0 -27 11t-11 28v421h-64
q-16 0 -25.5 9.5t-9.5 23.5q0 15 9.5 24.5t25.5 9.5h64v37q0 62 24.5 111t73 77.5t117.5 28.5q50 0 100 -15q12 15 32 15q17 0 27.5 -10.5t10.5 -27.5v-570q0 -43 17.5 -70t44.5 -27h25q14 0 23.5 -10.5z" />
    <glyph glyph-name=".notdef" horiz-adv-x="625" 
d="M577.5 772.5q8.5 -8.5 8.5 -20.5v-723q0 -12 -8.5 -20.5t-20.5 -8.5h-489q-13 0 -21 8.5t-8 20.5v723q0 12 8 20.5t21 8.5h489q12 0 20.5 -8.5zM93 54h439v673h-439v-673zM380 575q-26 24 -66 24q-43 0 -69 -26t-26 -70q0 -13 -8.5 -21.5t-22.5 -8.5q-13 0 -22 8.5
t-9 21.5q0 68 44 111t113 43q66 0 109 -41t43 -104q0 -35 -12 -60.5t-27 -41.5t-54 -52q-30 -27 -30 -75q0 -13 -9 -22t-22 -9t-22 9t-9 22q0 28 13.5 58.5t35.5 51.5l15 14q32 29 46.5 51t14.5 56q0 37 -26 61zM342.5 203.5q12.5 -12.5 12.5 -30.5t-12.5 -30.5t-30.5 -12.5
t-30.5 12.5t-12.5 30.5q0 17 12.5 30t30.5 13t30.5 -12.5z" />
    <glyph glyph-name="NULL" horiz-adv-x="0" 
 />
    <glyph glyph-name="NULL" horiz-adv-x="0" 
 />
    <glyph glyph-name="nonmarkingreturn" unicode="&#xd;" horiz-adv-x="293" 
 />
    <glyph glyph-name="space" unicode=" " horiz-adv-x="293" 
 />
    <glyph glyph-name="A" unicode="A" horiz-adv-x="703" 
d="M690 39q0 -16 -11.5 -27.5t-27.5 -11.5q-26 0 -37 24l-67 162h-387l-67 -162q-8 -24 -36 -24q-17 0 -27.5 11.5t-10.5 27.5q0 10 3 17l294 698q11 27 38 27t37 -27l295 -699q4 -7 4 -16zM520 253l-166 401l-166 -401h332z" />
    <glyph glyph-name="Aacute" unicode="&#xc1;" horiz-adv-x="703" 
d="M690 39q0 -16 -11.5 -27.5t-27.5 -11.5q-26 0 -37 24l-67 162h-387l-67 -162q-8 -24 -36 -24q-17 0 -27.5 11.5t-10.5 27.5q0 10 3 17l294 698q11 27 38 27t37 -27l295 -699q4 -7 4 -16zM520 253l-166 401l-166 -401h332zM317 875.5q-11 11.5 -11 27.5t9 26l113 113
q11 11 27 11q17 0 28 -11.5t11 -28.5q0 -16 -11 -26l-112 -113q-10 -10 -26 -10q-17 0 -28 11.5z" />
    <glyph glyph-name="Abreve" unicode="&#x102;" horiz-adv-x="703" 
d="M690 39q0 -16 -11.5 -27.5t-27.5 -11.5q-26 0 -37 24l-67 162h-387l-67 -162q-8 -24 -36 -24q-17 0 -27.5 11.5t-10.5 27.5q0 10 3 17l294 698q11 27 38 27t37 -27l295 -699q4 -7 4 -16zM520 253l-166 401l-166 -401h332zM273 880.5q-36 15.5 -57 42t-21 58.5
q0 17 11 28.5t27 11.5q15 0 26 -10.5t11 -25.5q0 -23 23 -39t58 -16q37 0 59.5 15.5t22.5 39.5q0 16 11 26t27 10t26.5 -11.5t10.5 -27.5q-2 -51 -47.5 -84t-109.5 -33q-42 0 -78 15.5z" />
    <glyph glyph-name="uni1EAE" unicode="&#x1eae;" horiz-adv-x="703" 
d="M690 39q0 -16 -11.5 -27.5t-27.5 -11.5q-26 0 -37 24l-67 162h-387l-67 -162q-8 -24 -36 -24q-17 0 -27.5 11.5t-10.5 27.5q0 10 3 17l294 698q11 27 38 27t37 -27l295 -699q4 -7 4 -16zM520 253l-166 401l-166 -401h332zM273 880.5q-36 15.5 -57 42t-21 58.5
q0 17 11 28.5t27 11.5q15 0 26 -10.5t11 -25.5q0 -23 23 -39t58 -16q37 0 59.5 15.5t22.5 39.5q0 16 11 26t27 10t26.5 -11.5t10.5 -27.5q-2 -51 -47.5 -84t-109.5 -33q-42 0 -78 15.5zM317 1043.5q-11 11.5 -11 27.5t9 26l113 113q11 11 27 11q17 0 28 -11.5t11 -28.5
q0 -16 -11 -26l-112 -113q-10 -10 -26 -10q-17 0 -28 11.5z" />
    <glyph glyph-name="uni1EB6" unicode="&#x1eb6;" horiz-adv-x="703" 
d="M690 39q0 -16 -11.5 -27.5t-27.5 -11.5q-26 0 -37 24l-67 162h-387l-67 -162q-8 -24 -36 -24q-17 0 -27.5 11.5t-10.5 27.5q0 10 3 17l294 698q11 27 38 27t37 -27l295 -699q4 -7 4 -16zM520 253l-166 401l-166 -401h332zM273 880.5q-36 15.5 -57 42t-21 58.5
q0 17 11 28.5t27 11.5q15 0 26 -10.5t11 -25.5q0 -23 23 -39t58 -16q37 0 59.5 15.5t22.5 39.5q0 16 11 26t27 10t26.5 -11.5t10.5 -27.5q-2 -51 -47.5 -84t-109.5 -33q-42 0 -78 15.5zM312.5 -193q-15.5 16 -15.5 39q0 24 16 39t39 15q22 0 38 -15t16 -39q0 -23 -16 -39
t-39 -16t-38.5 16z" />
    <glyph glyph-name="uni1EB0" unicode="&#x1eb0;" horiz-adv-x="703" 
d="M690 39q0 -16 -11.5 -27.5t-27.5 -11.5q-26 0 -37 24l-67 162h-387l-67 -162q-8 -24 -36 -24q-17 0 -27.5 11.5t-10.5 27.5q0 10 3 17l294 698q11 27 38 27t37 -27l295 -699q4 -7 4 -16zM520 253l-166 401l-166 -401h332zM273 880.5q-36 15.5 -57 42t-21 58.5
q0 17 11 28.5t27 11.5q15 0 26 -10.5t11 -25.5q0 -23 23 -39t58 -16q37 0 59.5 15.5t22.5 39.5q0 16 11 26t27 10t26.5 -11.5t10.5 -27.5q-2 -51 -47.5 -84t-109.5 -33q-42 0 -78 15.5zM325 1049l-113 112q-10 10 -10 27t11 28.5t27 11.5t28 -12l112 -113q10 -9 10 -25
q0 -17 -11 -28.5t-28 -11.5q-15 0 -26 11z" />
    <glyph glyph-name="uni1EB2" unicode="&#x1eb2;" horiz-adv-x="703" 
d="M690 39q0 -16 -11.5 -27.5t-27.5 -11.5q-26 0 -37 24l-67 162h-387l-67 -162q-8 -24 -36 -24q-17 0 -27.5 11.5t-10.5 27.5q0 10 3 17l294 698q11 27 38 27t37 -27l295 -699q4 -7 4 -16zM520 253l-166 401l-166 -401h332zM273 880.5q-36 15.5 -57 42t-21 58.5
q0 17 11 28.5t27 11.5q15 0 26 -10.5t11 -25.5q0 -23 23 -39t58 -16q37 0 59.5 15.5t22.5 39.5q0 16 11 26t27 10t26.5 -11.5t10.5 -27.5q-2 -51 -47.5 -84t-109.5 -33q-42 0 -78 15.5zM325.5 1010.5q-10.5 10.5 -10.5 25.5v28q0 32 32 39l25 5q41 10 41 44q0 22 -14 34
t-36 12q-23 0 -44 -16q-9 -9 -25 -9q-13 0 -22.5 9t-9.5 23q0 17 12 27q39 31 88 31q51 0 84 -29.5t33 -76.5q0 -44 -28 -68.5t-73 -31.5l8 -13q0 -20 -10 -32t-25 -12t-25.5 10.5z" />
    <glyph glyph-name="uni1EB4" unicode="&#x1eb4;" horiz-adv-x="703" 
d="M690 39q0 -16 -11.5 -27.5t-27.5 -11.5q-26 0 -37 24l-67 162h-387l-67 -162q-8 -24 -36 -24q-17 0 -27.5 11.5t-10.5 27.5q0 10 3 17l294 698q11 27 38 27t37 -27l295 -699q4 -7 4 -16zM520 253l-166 401l-166 -401h332zM273 880.5q-36 15.5 -57 42t-21 58.5
q0 17 11 28.5t27 11.5q15 0 26 -10.5t11 -25.5q0 -23 23 -39t58 -16q37 0 59.5 15.5t22.5 39.5q0 16 11 26t27 10t26.5 -11.5t10.5 -27.5q-2 -51 -47.5 -84t-109.5 -33q-42 0 -78 15.5zM338 1081q-16 15 -25.5 21t-19.5 6q-11 0 -19.5 -9t-18.5 -28q-13 -21 -32 -21
q-15 0 -24 9t-9 22q0 9 4 17q19 39 42 56.5t53 17.5q26 0 41.5 -9.5t37.5 -28.5q16 -14 24.5 -19t16.5 -5q7 0 13 5.5t12 18.5q5 11 15 17.5t20 6.5q4 0 10 -2q24 -10 24 -30q0 -9 -4 -16q-17 -35 -37 -50.5t-46 -15.5q-41 0 -78 37z" />
    <glyph glyph-name="Acircumflex" unicode="&#xc2;" horiz-adv-x="703" 
d="M690 39q0 -16 -11.5 -27.5t-27.5 -11.5q-26 0 -37 24l-67 162h-387l-67 -162q-8 -24 -36 -24q-17 0 -27.5 11.5t-10.5 27.5q0 10 3 17l294 698q11 27 38 27t37 -27l295 -699q4 -7 4 -16zM520 253l-166 401l-166 -401h332zM207.5 877.5q-11.5 9.5 -11.5 25.5q0 21 19 34
l118 78q8 5 19 5q10 0 20 -5l117 -78q19 -13 19 -34q0 -15 -11 -25t-28 -10q-11 0 -24 8l-93 64l-93 -64q-11 -8 -23 -8q-17 0 -28.5 9.5z" />
    <glyph glyph-name="uni1EA4" unicode="&#x1ea4;" horiz-adv-x="703" 
d="M690 39q0 -16 -11.5 -27.5t-27.5 -11.5q-26 0 -37 24l-67 162h-387l-67 -162q-8 -24 -36 -24q-17 0 -27.5 11.5t-10.5 27.5q0 10 3 17l294 698q11 27 38 27t37 -27l295 -699q4 -7 4 -16zM520 253l-166 401l-166 -401h332zM207.5 877.5q-11.5 9.5 -11.5 25.5q0 21 19 34
l118 78q8 5 19 5q10 0 20 -5l117 -78q19 -13 19 -34q0 -15 -11 -25t-28 -10q-11 0 -24 8l-93 64l-93 -64q-11 -8 -23 -8q-17 0 -28.5 9.5zM413 1044.5q-11 11.5 -11 27.5t9 26l113 113q11 11 27 11q17 0 28 -11.5t11 -28.5q0 -16 -11 -26l-112 -113q-10 -10 -26 -10
q-17 0 -28 11.5z" />
    <glyph glyph-name="uni1EAC" unicode="&#x1eac;" horiz-adv-x="703" 
d="M690 39q0 -16 -11.5 -27.5t-27.5 -11.5q-26 0 -37 24l-67 162h-387l-67 -162q-8 -24 -36 -24q-17 0 -27.5 11.5t-10.5 27.5q0 10 3 17l294 698q11 27 38 27t37 -27l295 -699q4 -7 4 -16zM520 253l-166 401l-166 -401h332zM207.5 877.5q-11.5 9.5 -11.5 25.5q0 21 19 34
l118 78q8 5 19 5q10 0 20 -5l117 -78q19 -13 19 -34q0 -15 -11 -25t-28 -10q-11 0 -24 8l-93 64l-93 -64q-11 -8 -23 -8q-17 0 -28.5 9.5zM312.5 -193q-15.5 16 -15.5 39q0 24 16 39t39 15q22 0 38 -15t16 -39q0 -23 -16 -39t-39 -16t-38.5 16z" />
    <glyph glyph-name="uni1EA6" unicode="&#x1ea6;" horiz-adv-x="703" 
d="M690 39q0 -16 -11.5 -27.5t-27.5 -11.5q-26 0 -37 24l-67 162h-387l-67 -162q-8 -24 -36 -24q-17 0 -27.5 11.5t-10.5 27.5q0 10 3 17l294 698q11 27 38 27t37 -27l295 -699q4 -7 4 -16zM520 253l-166 401l-166 -401h332zM207.5 877.5q-11.5 9.5 -11.5 25.5q0 21 19 34
l118 78q8 5 19 5q10 0 20 -5l117 -78q19 -13 19 -34q0 -15 -11 -25t-28 -10q-11 0 -24 8l-93 64l-93 -64q-11 -8 -23 -8q-17 0 -28.5 9.5zM421 1050l-113 112q-10 10 -10 27t11 28.5t27 11.5t28 -12l112 -113q10 -9 10 -25q0 -17 -11 -28.5t-28 -11.5q-15 0 -26 11z" />
    <glyph glyph-name="uni1EA8" unicode="&#x1ea8;" horiz-adv-x="703" 
d="M690 39q0 -16 -11.5 -27.5t-27.5 -11.5q-26 0 -37 24l-67 162h-387l-67 -162q-8 -24 -36 -24q-17 0 -27.5 11.5t-10.5 27.5q0 10 3 17l294 698q11 27 38 27t37 -27l295 -699q4 -7 4 -16zM520 253l-166 401l-166 -401h332zM210.5 877.5q-11.5 9.5 -11.5 25.5q0 21 19 34
l118 78q8 5 19 5q10 0 20 -5l117 -78q19 -13 19 -34q0 -15 -11 -25t-28 -10q-11 0 -24 8l-93 64l-93 -64q-11 -8 -23 -8q-17 0 -28.5 9.5zM424.5 1011.5q-10.5 10.5 -10.5 25.5v28q0 32 32 39l25 5q41 10 41 44q0 22 -14 34t-36 12q-23 0 -44 -16q-9 -9 -25 -9
q-13 0 -22.5 9t-9.5 23q0 17 12 27q39 31 88 31q51 0 84 -29.5t33 -76.5q0 -44 -28 -68.5t-73 -31.5l8 -13q0 -20 -10 -32t-25 -12t-25.5 10.5z" />
    <glyph glyph-name="uni1EAA" unicode="&#x1eaa;" horiz-adv-x="703" 
d="M690 39q0 -16 -11.5 -27.5t-27.5 -11.5q-26 0 -37 24l-67 162h-387l-67 -162q-8 -24 -36 -24q-17 0 -27.5 11.5t-10.5 27.5q0 10 3 17l294 698q11 27 38 27t37 -27l295 -699q4 -7 4 -16zM520 253l-166 401l-166 -401h332zM209.5 877.5q-11.5 9.5 -11.5 25.5q0 21 19 34
l118 78q8 5 19 5q10 0 20 -5l117 -78q19 -13 19 -34q0 -15 -11 -25t-28 -10q-11 0 -24 8l-93 64l-93 -64q-11 -8 -23 -8q-17 0 -28.5 9.5zM335 1084q-16 15 -25.5 21t-19.5 6q-11 0 -19.5 -9t-18.5 -28q-13 -21 -32 -21q-15 0 -24 9t-9 22q0 9 4 17q19 39 42 56.5t53 17.5
q26 0 41.5 -9.5t37.5 -28.5q16 -14 24.5 -19t16.5 -5q7 0 13 5.5t12 18.5q5 11 15 17.5t20 6.5q4 0 10 -2q24 -10 24 -30q0 -9 -4 -16q-17 -35 -37 -50.5t-46 -15.5q-41 0 -78 37z" />
    <glyph glyph-name="uni0200" unicode="&#x200;" horiz-adv-x="703" 
d="M690 39q0 -16 -11.5 -27.5t-27.5 -11.5q-26 0 -37 24l-67 162h-387l-67 -162q-8 -24 -36 -24q-17 0 -27.5 11.5t-10.5 27.5q0 10 3 17l294 698q11 27 38 27t37 -27l295 -699q4 -7 4 -16zM520 253l-166 401l-166 -401h332zM280 877l-61 129q-3 8 -3 14q0 16 11 27.5
t28 11.5q12 0 22 -7t13 -17l44 -136q2 -8 2 -12q0 -13 -8.5 -21t-19.5 -8q-19 0 -28 19zM431 877l-61 129q-3 8 -3 14q0 16 11.5 27.5t28.5 11.5q12 0 22 -7t14 -17l42 -136q2 -4 2 -12q0 -13 -8.5 -21t-19.5 -8q-19 0 -28 19z" />
    <glyph glyph-name="Adieresis" unicode="&#xc4;" horiz-adv-x="703" 
d="M690 39q0 -16 -11.5 -27.5t-27.5 -11.5q-26 0 -37 24l-67 162h-387l-67 -162q-8 -24 -36 -24q-17 0 -27.5 11.5t-10.5 27.5q0 10 3 17l294 698q11 27 38 27t37 -27l295 -699q4 -7 4 -16zM520 253l-166 401l-166 -401h332zM209 897q-16 16 -16 39t16 39t39 16t39 -16
t16 -39t-16 -39t-39 -16t-39 16zM418 897q-16 16 -16 39t16 39t39 16t39 -16t16 -39t-16 -39t-39 -16t-39 16z" />
    <glyph glyph-name="uni1EA0" unicode="&#x1ea0;" horiz-adv-x="703" 
d="M690 39q0 -16 -11.5 -27.5t-27.5 -11.5q-26 0 -37 24l-67 162h-387l-67 -162q-8 -24 -36 -24q-17 0 -27.5 11.5t-10.5 27.5q0 10 3 17l294 698q11 27 38 27t37 -27l295 -699q4 -7 4 -16zM520 253l-166 401l-166 -401h332zM312.5 -193q-15.5 16 -15.5 39q0 24 16 39t39 15
q22 0 38 -15t16 -39q0 -23 -16 -39t-39 -16t-38.5 16z" />
    <glyph glyph-name="Agrave" unicode="&#xc0;" horiz-adv-x="703" 
d="M690 39q0 -16 -11.5 -27.5t-27.5 -11.5q-26 0 -37 24l-67 162h-387l-67 -162q-8 -24 -36 -24q-17 0 -27.5 11.5t-10.5 27.5q0 10 3 17l294 698q11 27 38 27t37 -27l295 -699q4 -7 4 -16zM520 253l-166 401l-166 -401h332zM325 881l-113 112q-10 10 -10 27t11 28.5
t27 11.5t28 -12l112 -113q10 -9 10 -25q0 -17 -11 -28.5t-28 -11.5q-15 0 -26 11z" />
    <glyph glyph-name="uni1EA2" unicode="&#x1ea2;" horiz-adv-x="703" 
d="M690 39q0 -16 -11.5 -27.5t-27.5 -11.5q-26 0 -37 24l-67 162h-387l-67 -162q-8 -24 -36 -24q-17 0 -27.5 11.5t-10.5 27.5q0 10 3 17l294 698q11 27 38 27t37 -27l295 -699q4 -7 4 -16zM520 253l-166 401l-166 -401h332zM325.5 842.5q-10.5 10.5 -10.5 25.5v28
q0 32 32 39l25 5q41 10 41 44q0 22 -14 34t-36 12q-23 0 -44 -16q-9 -9 -25 -9q-13 0 -22.5 9t-9.5 23q0 17 12 27q39 31 88 31q51 0 84 -29.5t33 -76.5q0 -44 -28 -68.5t-73 -31.5l8 -13q0 -20 -10 -32t-25 -12t-25.5 10.5z" />
    <glyph glyph-name="uni0202" unicode="&#x202;" horiz-adv-x="703" 
d="M690 39q0 -16 -11.5 -27.5t-27.5 -11.5q-26 0 -37 24l-67 162h-387l-67 -162q-8 -24 -36 -24q-17 0 -27.5 11.5t-10.5 27.5q0 10 3 17l294 698q11 27 38 27t37 -27l295 -699q4 -7 4 -16zM520 253l-166 401l-166 -401h332zM460.5 987q45.5 -33 47.5 -84q0 -16 -10.5 -27.5
t-26.5 -11.5t-27 10t-11 26q0 24 -22.5 39.5t-59.5 15.5q-35 0 -58 -16t-23 -39q0 -15 -11 -25.5t-26 -10.5q-16 0 -27 11.5t-11 28.5q0 32 21 58.5t57 42t78 15.5q64 0 109.5 -33z" />
    <glyph glyph-name="Amacron" unicode="&#x100;" horiz-adv-x="703" 
d="M690 39q0 -16 -11.5 -27.5t-27.5 -11.5q-26 0 -37 24l-67 162h-387l-67 -162q-8 -24 -36 -24q-17 0 -27.5 11.5t-10.5 27.5q0 10 3 17l294 698q11 27 38 27t37 -27l295 -699q4 -7 4 -16zM520 253l-166 401l-166 -401h332zM194 900q-11 10 -11 26t11 26t28 10h259
q16 0 27.5 -10t11.5 -26t-11.5 -26t-27.5 -10h-259q-17 0 -28 10z" />
    <glyph glyph-name="Aogonek" unicode="&#x104;" horiz-adv-x="703" 
d="M754 -132.5q11 -11.5 11 -27.5q0 -18 -13 -31l-40 -26q-30 -21 -64 -21q-48 0 -82.5 34.5t-34.5 82.5q0 55 49 96q26 19 34 39l3 4l-3 6l-67 162h-387l-67 -162q-8 -24 -36 -24q-17 0 -27.5 11.5t-10.5 27.5q0 10 3 17l294 698q11 27 38 27t37 -27l295 -699q4 -7 4 -16
q0 -13 -8 -24q5 -8 5 -19q0 -40 -62 -85q-16 -12 -16 -32q0 -17 11.5 -28t27.5 -11q12 0 21 6l34 25q11 8 23 8q17 0 28 -11.5zM520 253l-166 401l-166 -401h332z" />
    <glyph glyph-name="Aring" unicode="&#xc5;" horiz-adv-x="703" 
d="M690 39q0 -16 -11.5 -27.5t-27.5 -11.5q-26 0 -37 24l-67 162h-387l-67 -162q-8 -24 -36 -24q-17 0 -27.5 11.5t-10.5 27.5q0 10 3 17l294 698q11 27 38 27t37 -27l295 -699q4 -7 4 -16zM520 253l-166 401l-166 -401h332zM282.5 855q-28.5 28 -28.5 70t28.5 70t69.5 28
q42 0 70 -28t28 -70t-28 -70t-70 -28q-41 0 -69.5 28zM389.5 887.5q15.5 15.5 15.5 37.5q0 23 -15.5 38t-37.5 15t-37 -15.5t-15 -37.5t15 -37.5t37 -15.5t37.5 15.5z" />
    <glyph glyph-name="Aringacute" unicode="&#x1fa;" horiz-adv-x="703" 
d="M690 39q0 -16 -11.5 -27.5t-27.5 -11.5q-26 0 -37 24l-67 162h-387l-67 -162q-8 -24 -36 -24q-17 0 -27.5 11.5t-10.5 27.5q0 10 3 17l294 698q11 27 38 27t37 -27l295 -699q4 -7 4 -16zM520 253l-166 401l-166 -401h332zM282.5 855q-28.5 28 -28.5 70t28.5 70t69.5 28
q42 0 70 -28t28 -70t-28 -70t-70 -28q-41 0 -69.5 28zM389.5 887.5q15.5 15.5 15.5 37.5q0 23 -15.5 38t-37.5 15t-37 -15.5t-15 -37.5t15 -37.5t37 -15.5t37.5 15.5zM317 1073.5q-11 11.5 -11 27.5t9 26l113 113q11 11 27 11q17 0 28 -11.5t11 -28.5q0 -16 -11 -26
l-112 -113q-10 -10 -26 -10q-17 0 -28 11.5z" />
    <glyph glyph-name="Atilde" unicode="&#xc3;" horiz-adv-x="703" 
d="M690 39q0 -16 -11.5 -27.5t-27.5 -11.5q-26 0 -37 24l-67 162h-387l-67 -162q-8 -24 -36 -24q-17 0 -27.5 11.5t-10.5 27.5q0 10 3 17l294 698q11 27 38 27t37 -27l295 -699q4 -7 4 -16zM520 253l-166 401l-166 -401h332zM338 913q-16 15 -25.5 21t-19.5 6
q-11 0 -19.5 -9t-18.5 -28q-13 -21 -32 -21q-15 0 -24 9t-9 22q0 9 4 17q19 39 42 56.5t53 17.5q26 0 41.5 -9.5t37.5 -28.5q16 -14 24.5 -19t16.5 -5q7 0 13 5.5t12 18.5q5 11 15 17.5t20 6.5q4 0 10 -2q24 -10 24 -30q0 -9 -4 -16q-17 -35 -37 -50.5t-46 -15.5
q-41 0 -78 37z" />
    <glyph glyph-name="AE" unicode="&#xc6;" horiz-adv-x="960" 
d="M904 64.5q11 -10.5 11 -26.5t-11 -27t-28 -11h-394q-16 0 -27.5 11.5t-11.5 27.5v147h-252l-97 -162q-12 -24 -36 -24q-17 0 -28.5 12t-11.5 27q0 7 5 17l419 695q9 16 21.5 23t32.5 7h380q17 0 28 -11t11 -27t-11 -26.5t-28 -10.5h-355v-276h238q17 0 28 -11t11 -27
t-11.5 -27t-27.5 -11h-238v-279h355q17 0 28 -10.5zM443 253v357l-212 -357h212z" />
    <glyph glyph-name="AEacute" unicode="&#x1fc;" horiz-adv-x="960" 
d="M904 64.5q11 -10.5 11 -26.5t-11 -27t-28 -11h-394q-16 0 -27.5 11.5t-11.5 27.5v147h-252l-97 -162q-12 -24 -36 -24q-17 0 -28.5 12t-11.5 27q0 7 5 17l419 695q9 16 21.5 23t32.5 7h380q17 0 28 -11t11 -27t-11 -26.5t-28 -10.5h-355v-276h238q17 0 28 -11t11 -27
t-11.5 -27t-27.5 -11h-238v-279h355q17 0 28 -10.5zM443 253v357l-212 -357h212zM562 875.5q-11 11.5 -11 27.5t9 26l113 113q11 11 27 11q17 0 28 -11.5t11 -28.5q0 -16 -11 -26l-112 -113q-10 -10 -26 -10q-17 0 -28 11.5z" />
    <glyph glyph-name="B" unicode="B" horiz-adv-x="695" 
d="M112 10.5q-12 10.5 -12 28.5v703q0 17 11 28t28 11h243q60 0 108.5 -25.5t77 -70.5t28.5 -101q0 -53 -28.5 -95t-76.5 -65q69 -19 109 -68.5t40 -124.5q0 -67 -31 -119.5t-85.5 -82t-124.5 -29.5h-255q-20 0 -32 10.5zM382 455q61 0 99.5 34.5t38.5 94.5q0 58 -38 90
t-100 32h-204v-251h204zM399 75q73 0 118.5 42.5t45.5 113.5q0 68 -45.5 108.5t-118.5 40.5h-221v-305h221z" />
    <glyph glyph-name="C" unicode="C" horiz-adv-x="771" 
d="M256 44q-89 54 -141.5 146t-52.5 201q0 108 52 200t141 146t196 54q72 0 131 -21t114 -67q11 -8 11 -23q0 -8 -4 -14.5t-11 -9.5q-2 -7 -9 -11t-15 -4q-15 0 -25 9q-39 35 -85 51t-107 16q-84 0 -156 -44.5t-114.5 -119.5t-42.5 -162q0 -89 42 -164t114 -119t157 -44
q109 0 197 70q11 8 22 8q15 0 26 -10.5t11 -27.5q0 -16 -11 -28q-94 -86 -245 -86q-106 0 -195 54z" />
    <glyph glyph-name="Cacute" unicode="&#x106;" horiz-adv-x="771" 
d="M256 44q-89 54 -141.5 146t-52.5 201q0 108 52 200t141 146t196 54q72 0 131 -21t114 -67q11 -8 11 -23q0 -8 -4 -14.5t-11 -9.5q-2 -7 -9 -11t-15 -4q-15 0 -25 9q-39 35 -85 51t-107 16q-84 0 -156 -44.5t-114.5 -119.5t-42.5 -162q0 -89 42 -164t114 -119t157 -44
q109 0 197 70q11 8 22 8q15 0 26 -10.5t11 -27.5q0 -16 -11 -28q-94 -86 -245 -86q-106 0 -195 54zM411 875.5q-11 11.5 -11 27.5t9 26l113 113q11 11 27 11q17 0 28 -11.5t11 -28.5q0 -16 -11 -26l-112 -113q-10 -10 -26 -10q-17 0 -28 11.5z" />
    <glyph glyph-name="Ccaron" unicode="&#x10c;" horiz-adv-x="771" 
d="M256 44q-89 54 -141.5 146t-52.5 201q0 108 52 200t141 146t196 54q72 0 131 -21t114 -67q11 -8 11 -23q0 -8 -4 -14.5t-11 -9.5q-2 -7 -9 -11t-15 -4q-15 0 -25 9q-39 35 -85 51t-107 16q-84 0 -156 -44.5t-114.5 -119.5t-42.5 -162q0 -89 42 -164t114 -119t157 -44
q109 0 197 70q11 8 22 8q15 0 26 -10.5t11 -27.5q0 -16 -11 -28q-94 -86 -245 -86q-106 0 -195 54zM427 878l-118 78q-19 13 -19 33q0 13 8.5 21t22.5 8q15 0 32 -11l93 -63l93 62q17 12 33 12q14 0 22 -8.5t8 -20.5q0 -20 -19 -33l-117 -78q-7 -5 -20 -5t-19 5z" />
    <glyph glyph-name="Ccedilla" unicode="&#xc7;" horiz-adv-x="771" 
d="M670 142q15 0 26 -10.5t11 -27.5q0 -16 -11 -28q-83 -74 -203 -84l-12 -28q50 -13 71.5 -36t21.5 -57q0 -28 -18 -52t-49 -38t-69 -14q-52 0 -87 22t-35 52q0 15 11 26t26 11q19 0 35 -21q16 -24 51 -24q23 0 38 10t15 28q0 19 -12 30t-40 18q-19 4 -29 11.5t-10 20.5
q0 8 5 23l7 18q-97 10 -177.5 65.5t-127 143.5t-46.5 190q0 108 52 200t141 146t196 54q72 0 131 -21t114 -67q11 -8 11 -23q0 -8 -4 -14.5t-11 -9.5q-2 -7 -9 -11t-15 -4q-15 0 -25 9q-39 35 -85 51t-107 16q-84 0 -156 -44.5t-114.5 -119.5t-42.5 -162q0 -89 42 -164
t114 -119t157 -44q109 0 197 70q11 8 22 8z" />
    <glyph glyph-name="Ccircumflex" unicode="&#x108;" horiz-adv-x="771" 
d="M256 44q-89 54 -141.5 146t-52.5 201q0 108 52 200t141 146t196 54q72 0 131 -21t114 -67q11 -8 11 -23q0 -8 -4 -14.5t-11 -9.5q-2 -7 -9 -11t-15 -4q-15 0 -25 9q-39 35 -85 51t-107 16q-84 0 -156 -44.5t-114.5 -119.5t-42.5 -162q0 -89 42 -164t114 -119t157 -44
q109 0 197 70q11 8 22 8q15 0 26 -10.5t11 -27.5q0 -16 -11 -28q-94 -86 -245 -86q-106 0 -195 54zM301.5 877.5q-11.5 9.5 -11.5 25.5q0 21 19 34l118 78q8 5 19 5q10 0 20 -5l117 -78q19 -13 19 -34q0 -15 -11 -25t-28 -10q-11 0 -24 8l-93 64l-93 -64q-11 -8 -23 -8
q-17 0 -28.5 9.5z" />
    <glyph glyph-name="Cdotaccent" unicode="&#x10a;" horiz-adv-x="771" 
d="M256 44q-89 54 -141.5 146t-52.5 201q0 108 52 200t141 146t196 54q72 0 131 -21t114 -67q11 -8 11 -23q0 -8 -4 -14.5t-11 -9.5q-2 -7 -9 -11t-15 -4q-15 0 -25 9q-39 35 -85 51t-107 16q-84 0 -156 -44.5t-114.5 -119.5t-42.5 -162q0 -89 42 -164t114 -119t157 -44
q109 0 197 70q11 8 22 8q15 0 26 -10.5t11 -27.5q0 -16 -11 -28q-94 -86 -245 -86q-106 0 -195 54zM406.5 901q-15.5 16 -15.5 39q0 24 16 39t39 15q22 0 38 -15t16 -39q0 -23 -16 -39t-39 -16t-38.5 16z" />
    <glyph glyph-name="D" unicode="D" horiz-adv-x="770" 
d="M111 11q-11 11 -11 28v703q0 17 11 28t28 11h180q113 0 202 -50t138.5 -138.5t49.5 -201.5t-49.5 -202t-138.5 -139t-202 -50h-180q-17 0 -28 11zM319 70q91 0 162 41.5t111 114.5t40 165t-40 165t-111 114t-162 41h-141v-641h141z" />
    <glyph glyph-name="Eth" unicode="&#xd0;" horiz-adv-x="770" 
d="M521 731q89 -50 138.5 -138.5t49.5 -201.5t-49.5 -202t-138.5 -139t-202 -50h-180q-17 0 -28 11t-11 28v318h-64q-16 0 -26 9t-10 25t10 25t26 9h64v317q0 17 11 28t28 11h180q113 0 202 -50zM481 111.5q71 41.5 111 114.5t40 165t-40 165t-111 114t-162 41h-141v-286
h150q17 0 27 -9t10 -25t-10 -25t-27 -9h-150v-287h141q91 0 162 41.5z" />
    <glyph glyph-name="Dcaron" unicode="&#x10e;" horiz-adv-x="770" 
d="M111 11q-11 11 -11 28v703q0 17 11 28t28 11h180q113 0 202 -50t138.5 -138.5t49.5 -201.5t-49.5 -202t-138.5 -139t-202 -50h-180q-17 0 -28 11zM319 70q91 0 162 41.5t111 114.5t40 165t-40 165t-111 114t-162 41h-141v-641h141zM367 878l-118 78q-19 13 -19 33
q0 13 8.5 21t22.5 8q15 0 32 -11l93 -63l93 62q17 12 33 12q14 0 22 -8.5t8 -20.5q0 -20 -19 -33l-117 -78q-7 -5 -20 -5t-19 5z" />
    <glyph glyph-name="Dcroat" unicode="&#x110;" horiz-adv-x="770" 
d="M521 731q89 -50 138.5 -138.5t49.5 -201.5t-49.5 -202t-138.5 -139t-202 -50h-180q-17 0 -28 11t-11 28v318h-64q-16 0 -26 9t-10 25t10 25t26 9h64v317q0 17 11 28t28 11h180q113 0 202 -50zM481 111.5q71 41.5 111 114.5t40 165t-40 165t-111 114t-162 41h-141v-286
h150q17 0 27 -9t10 -25t-10 -25t-27 -9h-150v-287h141q91 0 162 41.5z" />
    <glyph glyph-name="E" unicode="E" horiz-adv-x="692" 
d="M111.5 11.5q-11.5 11.5 -11.5 27.5v703q0 17 11.5 28t27.5 11h469q17 0 28 -11t11 -27t-11 -26.5t-28 -10.5h-430v-276h313q17 0 28 -11t11 -27t-11.5 -27t-27.5 -11h-313v-279h430q17 0 28 -10.5t11 -26.5t-11 -27t-28 -11h-469q-16 0 -27.5 11.5z" />
    <glyph glyph-name="Eacute" unicode="&#xc9;" horiz-adv-x="692" 
d="M111.5 11.5q-11.5 11.5 -11.5 27.5v703q0 17 11.5 28t27.5 11h469q17 0 28 -11t11 -27t-11 -26.5t-28 -10.5h-430v-276h313q17 0 28 -11t11 -27t-11.5 -27t-27.5 -11h-313v-279h430q17 0 28 -10.5t11 -26.5t-11 -27t-28 -11h-469q-16 0 -27.5 11.5zM346 875.5
q-11 11.5 -11 27.5t9 26l113 113q11 11 27 11q17 0 28 -11.5t11 -28.5q0 -16 -11 -26l-112 -113q-10 -10 -26 -10q-17 0 -28 11.5z" />
    <glyph glyph-name="Ebreve" unicode="&#x114;" horiz-adv-x="692" 
d="M111.5 11.5q-11.5 11.5 -11.5 27.5v703q0 17 11.5 28t27.5 11h469q17 0 28 -11t11 -27t-11 -26.5t-28 -10.5h-430v-276h313q17 0 28 -11t11 -27t-11.5 -27t-27.5 -11h-313v-279h430q17 0 28 -10.5t11 -26.5t-11 -27t-28 -11h-469q-16 0 -27.5 11.5zM302 880.5
q-36 15.5 -57 42t-21 58.5q0 17 11 28.5t27 11.5q15 0 26 -10.5t11 -25.5q0 -23 23 -39t58 -16q37 0 59.5 15.5t22.5 39.5q0 16 11 26t27 10t26.5 -11.5t10.5 -27.5q-2 -51 -47.5 -84t-109.5 -33q-42 0 -78 15.5z" />
    <glyph glyph-name="Ecaron" unicode="&#x11a;" horiz-adv-x="692" 
d="M111.5 11.5q-11.5 11.5 -11.5 27.5v703q0 17 11.5 28t27.5 11h469q17 0 28 -11t11 -27t-11 -26.5t-28 -10.5h-430v-276h313q17 0 28 -11t11 -27t-11.5 -27t-27.5 -11h-313v-279h430q17 0 28 -10.5t11 -26.5t-11 -27t-28 -11h-469q-16 0 -27.5 11.5zM362 878l-118 78
q-19 13 -19 33q0 13 8.5 21t22.5 8q15 0 32 -11l93 -63l93 62q17 12 33 12q14 0 22 -8.5t8 -20.5q0 -20 -19 -33l-117 -78q-7 -5 -20 -5t-19 5z" />
    <glyph glyph-name="Ecircumflex" unicode="&#xca;" horiz-adv-x="692" 
d="M111.5 11.5q-11.5 11.5 -11.5 27.5v703q0 17 11.5 28t27.5 11h469q17 0 28 -11t11 -27t-11 -26.5t-28 -10.5h-430v-276h313q17 0 28 -11t11 -27t-11.5 -27t-27.5 -11h-313v-279h430q17 0 28 -10.5t11 -26.5t-11 -27t-28 -11h-469q-16 0 -27.5 11.5zM236.5 877.5
q-11.5 9.5 -11.5 25.5q0 21 19 34l118 78q8 5 19 5q10 0 20 -5l117 -78q19 -13 19 -34q0 -15 -11 -25t-28 -10q-11 0 -24 8l-93 64l-93 -64q-11 -8 -23 -8q-17 0 -28.5 9.5z" />
    <glyph glyph-name="uni1EBE" unicode="&#x1ebe;" horiz-adv-x="692" 
d="M111.5 11.5q-11.5 11.5 -11.5 27.5v703q0 17 11.5 28t27.5 11h469q17 0 28 -11t11 -27t-11 -26.5t-28 -10.5h-430v-276h313q17 0 28 -11t11 -27t-11.5 -27t-27.5 -11h-313v-279h430q17 0 28 -10.5t11 -26.5t-11 -27t-28 -11h-469q-16 0 -27.5 11.5zM236.5 877.5
q-11.5 9.5 -11.5 25.5q0 21 19 34l118 78q8 5 19 5q10 0 20 -5l117 -78q19 -13 19 -34q0 -15 -11 -25t-28 -10q-11 0 -24 8l-93 64l-93 -64q-11 -8 -23 -8q-17 0 -28.5 9.5zM442 1044.5q-11 11.5 -11 27.5t9 26l113 113q11 11 27 11q17 0 28 -11.5t11 -28.5q0 -16 -11 -26
l-112 -113q-10 -10 -26 -10q-17 0 -28 11.5z" />
    <glyph glyph-name="uni1EC6" unicode="&#x1ec6;" horiz-adv-x="692" 
d="M111.5 11.5q-11.5 11.5 -11.5 27.5v703q0 17 11.5 28t27.5 11h469q17 0 28 -11t11 -27t-11 -26.5t-28 -10.5h-430v-276h313q17 0 28 -11t11 -27t-11.5 -27t-27.5 -11h-313v-279h430q17 0 28 -10.5t11 -26.5t-11 -27t-28 -11h-469q-16 0 -27.5 11.5zM236.5 877.5
q-11.5 9.5 -11.5 25.5q0 21 19 34l118 78q8 5 19 5q10 0 20 -5l117 -78q19 -13 19 -34q0 -15 -11 -25t-28 -10q-11 0 -24 8l-93 64l-93 -64q-11 -8 -23 -8q-17 0 -28.5 9.5zM321.5 -193q-15.5 16 -15.5 39q0 24 16 39t39 15q22 0 38 -15t16 -39q0 -23 -16 -39t-39 -16
t-38.5 16z" />
    <glyph glyph-name="uni1EC0" unicode="&#x1ec0;" horiz-adv-x="692" 
d="M111.5 11.5q-11.5 11.5 -11.5 27.5v703q0 17 11.5 28t27.5 11h469q17 0 28 -11t11 -27t-11 -26.5t-28 -10.5h-430v-276h313q17 0 28 -11t11 -27t-11.5 -27t-27.5 -11h-313v-279h430q17 0 28 -10.5t11 -26.5t-11 -27t-28 -11h-469q-16 0 -27.5 11.5zM236.5 877.5
q-11.5 9.5 -11.5 25.5q0 21 19 34l118 78q8 5 19 5q10 0 20 -5l117 -78q19 -13 19 -34q0 -15 -11 -25t-28 -10q-11 0 -24 8l-93 64l-93 -64q-11 -8 -23 -8q-17 0 -28.5 9.5zM450 1050l-113 112q-10 10 -10 27t11 28.5t27 11.5t28 -12l112 -113q10 -9 10 -25q0 -17 -11 -28.5
t-28 -11.5q-15 0 -26 11z" />
    <glyph glyph-name="uni1EC2" unicode="&#x1ec2;" horiz-adv-x="692" 
d="M111.5 11.5q-11.5 11.5 -11.5 27.5v703q0 17 11.5 28t27.5 11h469q17 0 28 -11t11 -27t-11 -26.5t-28 -10.5h-430v-276h313q17 0 28 -11t11 -27t-11.5 -27t-27.5 -11h-313v-279h430q17 0 28 -10.5t11 -26.5t-11 -27t-28 -11h-469q-16 0 -27.5 11.5zM239.5 877.5
q-11.5 9.5 -11.5 25.5q0 21 19 34l118 78q8 5 19 5q10 0 20 -5l117 -78q19 -13 19 -34q0 -15 -11 -25t-28 -10q-11 0 -24 8l-93 64l-93 -64q-11 -8 -23 -8q-17 0 -28.5 9.5zM453.5 1011.5q-10.5 10.5 -10.5 25.5v28q0 32 32 39l25 5q41 10 41 44q0 22 -14 34t-36 12
q-23 0 -44 -16q-9 -9 -25 -9q-13 0 -22.5 9t-9.5 23q0 17 12 27q39 31 88 31q51 0 84 -29.5t33 -76.5q0 -44 -28 -68.5t-73 -31.5l8 -13q0 -20 -10 -32t-25 -12t-25.5 10.5z" />
    <glyph glyph-name="uni1EC4" unicode="&#x1ec4;" horiz-adv-x="692" 
d="M111.5 11.5q-11.5 11.5 -11.5 27.5v703q0 17 11.5 28t27.5 11h469q17 0 28 -11t11 -27t-11 -26.5t-28 -10.5h-430v-276h313q17 0 28 -11t11 -27t-11.5 -27t-27.5 -11h-313v-279h430q17 0 28 -10.5t11 -26.5t-11 -27t-28 -11h-469q-16 0 -27.5 11.5zM238.5 877.5
q-11.5 9.5 -11.5 25.5q0 21 19 34l118 78q8 5 19 5q10 0 20 -5l117 -78q19 -13 19 -34q0 -15 -11 -25t-28 -10q-11 0 -24 8l-93 64l-93 -64q-11 -8 -23 -8q-17 0 -28.5 9.5zM364 1084q-16 15 -25.5 21t-19.5 6q-11 0 -19.5 -9t-18.5 -28q-13 -21 -32 -21q-15 0 -24 9t-9 22
q0 9 4 17q19 39 42 56.5t53 17.5q26 0 41.5 -9.5t37.5 -28.5q16 -14 24.5 -19t16.5 -5q7 0 13 5.5t12 18.5q5 11 15 17.5t20 6.5q4 0 10 -2q24 -10 24 -30q0 -9 -4 -16q-17 -35 -37 -50.5t-46 -15.5q-41 0 -78 37z" />
    <glyph glyph-name="uni0204" unicode="&#x204;" horiz-adv-x="692" 
d="M111.5 11.5q-11.5 11.5 -11.5 27.5v703q0 17 11.5 28t27.5 11h469q17 0 28 -11t11 -27t-11 -26.5t-28 -10.5h-430v-276h313q17 0 28 -11t11 -27t-11.5 -27t-27.5 -11h-313v-279h430q17 0 28 -10.5t11 -26.5t-11 -27t-28 -11h-469q-16 0 -27.5 11.5zM309 877l-61 129
q-3 8 -3 14q0 16 11 27.5t28 11.5q12 0 22 -7t13 -17l44 -136q2 -8 2 -12q0 -13 -8.5 -21t-19.5 -8q-19 0 -28 19zM460 877l-61 129q-3 8 -3 14q0 16 11.5 27.5t28.5 11.5q12 0 22 -7t14 -17l42 -136q2 -4 2 -12q0 -13 -8.5 -21t-19.5 -8q-19 0 -28 19z" />
    <glyph glyph-name="Edieresis" unicode="&#xcb;" horiz-adv-x="692" 
d="M111.5 11.5q-11.5 11.5 -11.5 27.5v703q0 17 11.5 28t27.5 11h469q17 0 28 -11t11 -27t-11 -26.5t-28 -10.5h-430v-276h313q17 0 28 -11t11 -27t-11.5 -27t-27.5 -11h-313v-279h430q17 0 28 -10.5t11 -26.5t-11 -27t-28 -11h-469q-16 0 -27.5 11.5zM238 897
q-16 16 -16 39t16 39t39 16t39 -16t16 -39t-16 -39t-39 -16t-39 16zM447 897q-16 16 -16 39t16 39t39 16t39 -16t16 -39t-16 -39t-39 -16t-39 16z" />
    <glyph glyph-name="Edotaccent" unicode="&#x116;" horiz-adv-x="692" 
d="M111.5 11.5q-11.5 11.5 -11.5 27.5v703q0 17 11.5 28t27.5 11h469q17 0 28 -11t11 -27t-11 -26.5t-28 -10.5h-430v-276h313q17 0 28 -11t11 -27t-11.5 -27t-27.5 -11h-313v-279h430q17 0 28 -10.5t11 -26.5t-11 -27t-28 -11h-469q-16 0 -27.5 11.5zM341.5 901
q-15.5 16 -15.5 39q0 24 16 39t39 15q22 0 38 -15t16 -39q0 -23 -16 -39t-39 -16t-38.5 16z" />
    <glyph glyph-name="uni1EB8" unicode="&#x1eb8;" horiz-adv-x="692" 
d="M111.5 11.5q-11.5 11.5 -11.5 27.5v703q0 17 11.5 28t27.5 11h469q17 0 28 -11t11 -27t-11 -26.5t-28 -10.5h-430v-276h313q17 0 28 -11t11 -27t-11.5 -27t-27.5 -11h-313v-279h430q17 0 28 -10.5t11 -26.5t-11 -27t-28 -11h-469q-16 0 -27.5 11.5zM321.5 -193
q-15.5 16 -15.5 39q0 24 16 39t39 15q22 0 38 -15t16 -39q0 -23 -16 -39t-39 -16t-38.5 16z" />
    <glyph glyph-name="Egrave" unicode="&#xc8;" horiz-adv-x="692" 
d="M111.5 11.5q-11.5 11.5 -11.5 27.5v703q0 17 11.5 28t27.5 11h469q17 0 28 -11t11 -27t-11 -26.5t-28 -10.5h-430v-276h313q17 0 28 -11t11 -27t-11.5 -27t-27.5 -11h-313v-279h430q17 0 28 -10.5t11 -26.5t-11 -27t-28 -11h-469q-16 0 -27.5 11.5zM354 881l-113 112
q-10 10 -10 27t11 28.5t27 11.5t28 -12l112 -113q10 -9 10 -25q0 -17 -11 -28.5t-28 -11.5q-15 0 -26 11z" />
    <glyph glyph-name="uni1EBA" unicode="&#x1eba;" horiz-adv-x="692" 
d="M111.5 11.5q-11.5 11.5 -11.5 27.5v703q0 17 11.5 28t27.5 11h469q17 0 28 -11t11 -27t-11 -26.5t-28 -10.5h-430v-276h313q17 0 28 -11t11 -27t-11.5 -27t-27.5 -11h-313v-279h430q17 0 28 -10.5t11 -26.5t-11 -27t-28 -11h-469q-16 0 -27.5 11.5zM354.5 842.5
q-10.5 10.5 -10.5 25.5v28q0 32 32 39l25 5q41 10 41 44q0 22 -14 34t-36 12q-23 0 -44 -16q-9 -9 -25 -9q-13 0 -22.5 9t-9.5 23q0 17 12 27q39 31 88 31q51 0 84 -29.5t33 -76.5q0 -44 -28 -68.5t-73 -31.5l8 -13q0 -20 -10 -32t-25 -12t-25.5 10.5z" />
    <glyph glyph-name="uni0206" unicode="&#x206;" horiz-adv-x="692" 
d="M111.5 11.5q-11.5 11.5 -11.5 27.5v703q0 17 11.5 28t27.5 11h469q17 0 28 -11t11 -27t-11 -26.5t-28 -10.5h-430v-276h313q17 0 28 -11t11 -27t-11.5 -27t-27.5 -11h-313v-279h430q17 0 28 -10.5t11 -26.5t-11 -27t-28 -11h-469q-16 0 -27.5 11.5zM489.5 987
q45.5 -33 47.5 -84q0 -16 -10.5 -27.5t-26.5 -11.5t-27 10t-11 26q0 24 -22.5 39.5t-59.5 15.5q-35 0 -58 -16t-23 -39q0 -15 -11 -25.5t-26 -10.5q-16 0 -27 11.5t-11 28.5q0 32 21 58.5t57 42t78 15.5q64 0 109.5 -33z" />
    <glyph glyph-name="Emacron" unicode="&#x112;" horiz-adv-x="692" 
d="M111.5 11.5q-11.5 11.5 -11.5 27.5v703q0 17 11.5 28t27.5 11h469q17 0 28 -11t11 -27t-11 -26.5t-28 -10.5h-430v-276h313q17 0 28 -11t11 -27t-11.5 -27t-27.5 -11h-313v-279h430q17 0 28 -10.5t11 -26.5t-11 -27t-28 -11h-469q-16 0 -27.5 11.5zM223 900
q-11 10 -11 26t11 26t28 10h259q16 0 27.5 -10t11.5 -26t-11.5 -26t-27.5 -10h-259q-17 0 -28 10z" />
    <glyph glyph-name="Eogonek" unicode="&#x118;" horiz-adv-x="692" 
d="M732 -156.5q11 -11.5 11 -27.5q0 -18 -13 -31l-40 -26q-30 -21 -64 -21q-48 0 -82.5 34.5t-34.5 82.5q0 55 49 96q26 19 34 39q2 4 8 10h-461q-16 0 -27.5 11.5t-11.5 27.5v703q0 17 11.5 28t27.5 11h469q17 0 28 -11t11 -27t-11 -26.5t-28 -10.5h-430v-276h313
q17 0 28 -11t11 -27t-11.5 -27t-27.5 -11h-313v-279h430q17 0 28 -10.5t11 -26.5q0 -18 -13 -29q13 -2 21.5 -12.5t9.5 -24.5q0 -40 -62 -85q-16 -12 -16 -32q0 -17 11.5 -28t27.5 -11q12 0 21 6l34 25q11 8 23 8q17 0 28 -11.5z" />
    <glyph glyph-name="uni1EBC" unicode="&#x1ebc;" horiz-adv-x="692" 
d="M111.5 11.5q-11.5 11.5 -11.5 27.5v703q0 17 11.5 28t27.5 11h469q17 0 28 -11t11 -27t-11 -26.5t-28 -10.5h-430v-276h313q17 0 28 -11t11 -27t-11.5 -27t-27.5 -11h-313v-279h430q17 0 28 -10.5t11 -26.5t-11 -27t-28 -11h-469q-16 0 -27.5 11.5zM436 870q-22 9 -47 24
q-21 13 -34 18t-26 5q-37 0 -66 -35q-6 -9 -15 -14t-18 -5t-17 5q-7 4 -11.5 11.5t-4.5 15.5q0 12 7 22q25 32 58 49.5t69 17.5q27 0 47 -8t46 -24q23 -14 34.5 -19t26.5 -5q31 0 49 20q15 17 31 17q8 0 16 -5q18 -9 18 -28q0 -11 -8 -22q-40 -49 -105 -49q-28 0 -50 9z" />
    <glyph glyph-name="F" unicode="F" horiz-adv-x="625" 
d="M49.5 11.5q-11.5 11.5 -11.5 27.5v703q0 17 11.5 28t27.5 11h469q17 0 28 -11t11 -27t-11 -26.5t-28 -10.5h-430v-276h313q17 0 28 -10.5t11 -27.5q0 -16 -11 -27t-28 -11h-313v-315q0 -16 -11 -27.5t-28 -11.5q-16 0 -27.5 11.5z" />
    <glyph glyph-name="G" unicode="G" horiz-adv-x="771" 
d="M696 379.5q11 -10.5 11 -27.5v-248q0 -17 -11 -28q-93 -86 -245 -86q-106 0 -195 54t-141.5 146t-52.5 201q0 108 52 200t141 146t196 54q72 0 131 -21t114 -67q11 -8 11 -23q0 -8 -4 -14.5t-11 -9.5q-2 -7 -9 -11.5t-15 -4.5q-14 0 -25 10q-39 35 -85 51t-107 16
q-84 0 -156 -44.5t-114.5 -119.5t-42.5 -162q0 -89 42 -164t114 -119t157 -44q97 0 180 57v200h-156q-17 0 -28 10t-11 25t11 24.5t28 9.5h193q17 0 28 -10.5z" />
    <glyph glyph-name="Gbreve" unicode="&#x11e;" horiz-adv-x="771" 
d="M696 379.5q11 -10.5 11 -27.5v-248q0 -17 -11 -28q-93 -86 -245 -86q-106 0 -195 54t-141.5 146t-52.5 201q0 108 52 200t141 146t196 54q72 0 131 -21t114 -67q11 -8 11 -23q0 -8 -4 -14.5t-11 -9.5q-2 -7 -9 -11.5t-15 -4.5q-14 0 -25 10q-39 35 -85 51t-107 16
q-84 0 -156 -44.5t-114.5 -119.5t-42.5 -162q0 -89 42 -164t114 -119t157 -44q97 0 180 57v200h-156q-17 0 -28 10t-11 25t11 24.5t28 9.5h193q17 0 28 -10.5zM361 880.5q-36 15.5 -57 42t-21 58.5q0 17 11 28.5t27 11.5q15 0 26 -10.5t11 -25.5q0 -23 23 -39t58 -16
q37 0 59.5 15.5t22.5 39.5q0 16 11 26t27 10t26.5 -11.5t10.5 -27.5q-2 -51 -47.5 -84t-109.5 -33q-42 0 -78 15.5z" />
    <glyph glyph-name="Gcaron" unicode="&#x1e6;" horiz-adv-x="771" 
d="M696 379.5q11 -10.5 11 -27.5v-248q0 -17 -11 -28q-93 -86 -245 -86q-106 0 -195 54t-141.5 146t-52.5 201q0 108 52 200t141 146t196 54q72 0 131 -21t114 -67q11 -8 11 -23q0 -8 -4 -14.5t-11 -9.5q-2 -7 -9 -11.5t-15 -4.5q-14 0 -25 10q-39 35 -85 51t-107 16
q-84 0 -156 -44.5t-114.5 -119.5t-42.5 -162q0 -89 42 -164t114 -119t157 -44q97 0 180 57v200h-156q-17 0 -28 10t-11 25t11 24.5t28 9.5h193q17 0 28 -10.5zM421 878l-118 78q-19 13 -19 33q0 13 8.5 21t22.5 8q15 0 32 -11l93 -63l93 62q17 12 33 12q14 0 22 -8.5
t8 -20.5q0 -20 -19 -33l-117 -78q-7 -5 -20 -5t-19 5z" />
    <glyph glyph-name="Gcircumflex" unicode="&#x11c;" horiz-adv-x="771" 
d="M696 379.5q11 -10.5 11 -27.5v-248q0 -17 -11 -28q-93 -86 -245 -86q-106 0 -195 54t-141.5 146t-52.5 201q0 108 52 200t141 146t196 54q72 0 131 -21t114 -67q11 -8 11 -23q0 -8 -4 -14.5t-11 -9.5q-2 -7 -9 -11.5t-15 -4.5q-14 0 -25 10q-39 35 -85 51t-107 16
q-84 0 -156 -44.5t-114.5 -119.5t-42.5 -162q0 -89 42 -164t114 -119t157 -44q97 0 180 57v200h-156q-17 0 -28 10t-11 25t11 24.5t28 9.5h193q17 0 28 -10.5zM295.5 877.5q-11.5 9.5 -11.5 25.5q0 21 19 34l118 78q8 5 19 5q10 0 20 -5l117 -78q19 -13 19 -34
q0 -15 -11 -25t-28 -10q-11 0 -24 8l-93 64l-93 -64q-11 -8 -23 -8q-17 0 -28.5 9.5z" />
    <glyph glyph-name="Gcommaaccent" unicode="&#x122;" horiz-adv-x="771" 
d="M696 379.5q11 -10.5 11 -27.5v-248q0 -17 -11 -28q-93 -86 -245 -86q-106 0 -195 54t-141.5 146t-52.5 201q0 108 52 200t141 146t196 54q72 0 131 -21t114 -67q11 -8 11 -23q0 -8 -4 -14.5t-11 -9.5q-2 -7 -9 -11.5t-15 -4.5q-14 0 -25 10q-39 35 -85 51t-107 16
q-84 0 -156 -44.5t-114.5 -119.5t-42.5 -162q0 -89 42 -164t114 -119t157 -44q97 0 180 57v200h-156q-17 0 -28 10t-11 25t11 24.5t28 9.5h193q17 0 28 -10.5zM355.5 -218q-38.5 20 -38.5 51q0 13 8 20.5t21 7.5q11 0 19 -4t19 -13q12 -11 25 -17.5t34 -6.5q58 0 58 43
q0 19 -17 30t-52 11q-21 0 -33 7t-12 20q0 14 12 22t35 8q55 0 90.5 -27.5t35.5 -70.5q0 -46 -35 -73.5t-87 -27.5q-44 0 -82.5 20z" />
    <glyph glyph-name="Gdotaccent" unicode="&#x120;" horiz-adv-x="771" 
d="M696 379.5q11 -10.5 11 -27.5v-248q0 -17 -11 -28q-93 -86 -245 -86q-106 0 -195 54t-141.5 146t-52.5 201q0 108 52 200t141 146t196 54q72 0 131 -21t114 -67q11 -8 11 -23q0 -8 -4 -14.5t-11 -9.5q-2 -7 -9 -11.5t-15 -4.5q-14 0 -25 10q-39 35 -85 51t-107 16
q-84 0 -156 -44.5t-114.5 -119.5t-42.5 -162q0 -89 42 -164t114 -119t157 -44q97 0 180 57v200h-156q-17 0 -28 10t-11 25t11 24.5t28 9.5h193q17 0 28 -10.5zM400.5 901q-15.5 16 -15.5 39q0 24 16 39t39 15q22 0 38 -15t16 -39q0 -23 -16 -39t-39 -16t-38.5 16z" />
    <glyph glyph-name="H" unicode="H" horiz-adv-x="844" 
d="M111.5 11.5q-11.5 11.5 -11.5 27.5v703q0 17 11.5 28t27.5 11q17 0 28 -11t11 -28v-312h488v312q0 17 11.5 28t27.5 11q17 0 28 -11t11 -28v-703q0 -16 -11 -27.5t-28 -11.5q-16 0 -27.5 11.5t-11.5 27.5v321h-488v-321q0 -16 -11 -27.5t-28 -11.5q-16 0 -27.5 11.5z" />
    <glyph glyph-name="Hbar" unicode="&#x126;" horiz-adv-x="844" 
d="M817.5 641.5q10.5 -7.5 10.5 -22.5t-10.5 -22.5t-27.5 -7.5h-46v-550q0 -16 -11 -27.5t-28 -11.5q-16 0 -27.5 11.5t-11.5 27.5v321h-488v-321q0 -16 -11 -27.5t-28 -11.5q-16 0 -27.5 11.5t-11.5 27.5v550h-41q-37 0 -37 30t37 30h41v93q0 17 11.5 28t27.5 11
q17 0 28 -11t11 -28v-93h488v93q0 17 11.5 28t27.5 11q17 0 28 -11t11 -28v-93h46q17 0 27.5 -7.5zM666 589h-488v-159h488v159z" />
    <glyph glyph-name="Hcircumflex" unicode="&#x124;" horiz-adv-x="844" 
d="M111.5 11.5q-11.5 11.5 -11.5 27.5v703q0 17 11.5 28t27.5 11q17 0 28 -11t11 -28v-312h488v312q0 17 11.5 28t27.5 11q17 0 28 -11t11 -28v-703q0 -16 -11 -27.5t-28 -11.5q-16 0 -27.5 11.5t-11.5 27.5v321h-488v-321q0 -16 -11 -27.5t-28 -11.5q-16 0 -27.5 11.5z
M277.5 877.5q-11.5 9.5 -11.5 25.5q0 21 19 34l118 78q8 5 19 5q10 0 20 -5l117 -78q19 -13 19 -34q0 -15 -11 -25t-28 -10q-11 0 -24 8l-93 64l-93 -64q-11 -8 -23 -8q-17 0 -28.5 9.5z" />
    <glyph glyph-name="I" unicode="I" horiz-adv-x="278" 
d="M111.5 11.5q-11.5 11.5 -11.5 27.5v703q0 17 11.5 28t27.5 11q17 0 28 -11t11 -28v-703q0 -16 -11 -27.5t-28 -11.5q-16 0 -27.5 11.5z" />
    <glyph glyph-name="IJ" unicode="&#x132;" horiz-adv-x="639" 
d="M111.5 301.5q-11.5 11.5 -11.5 27.5v413q0 17 11.5 28t27.5 11q17 0 28 -11t11 -28v-413q0 -16 -11 -27.5t-28 -11.5q-16 0 -27.5 11.5zM205.5 12.5q-49.5 22.5 -77.5 64.5t-28 99q0 17 11 28t28 11t28 -11t11 -28q0 -55 38.5 -83.5t100.5 -28.5q40 0 73 21.5t52 58
t19 80.5v518q0 17 11.5 28t27.5 11q17 0 28 -11t11 -28v-518q0 -65 -29.5 -118.5t-80 -84.5t-112.5 -31t-111.5 22.5z" />
    <glyph glyph-name="Iacute" unicode="&#xcd;" horiz-adv-x="278" 
d="M111.5 11.5q-11.5 11.5 -11.5 27.5v703q0 17 11.5 28t27.5 11q17 0 28 -11t11 -28v-703q0 -16 -11 -27.5t-28 -11.5q-16 0 -27.5 11.5zM104 875.5q-11 11.5 -11 27.5t9 26l113 113q11 11 27 11q17 0 28 -11.5t11 -28.5q0 -16 -11 -26l-112 -113q-10 -10 -26 -10
q-17 0 -28 11.5z" />
    <glyph glyph-name="Ibreve" unicode="&#x12c;" horiz-adv-x="278" 
d="M111.5 11.5q-11.5 11.5 -11.5 27.5v703q0 17 11.5 28t27.5 11q17 0 28 -11t11 -28v-703q0 -16 -11 -27.5t-28 -11.5q-16 0 -27.5 11.5zM60 880.5q-36 15.5 -57 42t-21 58.5q0 17 11 28.5t27 11.5q15 0 26 -10.5t11 -25.5q0 -23 23 -39t58 -16q37 0 59.5 15.5t22.5 39.5
q0 16 11 26t27 10t26.5 -11.5t10.5 -27.5q-2 -51 -47.5 -84t-109.5 -33q-42 0 -78 15.5z" />
    <glyph glyph-name="Icircumflex" unicode="&#xce;" horiz-adv-x="278" 
d="M111.5 11.5q-11.5 11.5 -11.5 27.5v703q0 17 11.5 28t27.5 11q17 0 28 -11t11 -28v-703q0 -16 -11 -27.5t-28 -11.5q-16 0 -27.5 11.5zM-5.5 877.5q-11.5 9.5 -11.5 25.5q0 21 19 34l118 78q8 5 19 5q10 0 20 -5l117 -78q19 -13 19 -34q0 -15 -11 -25t-28 -10
q-11 0 -24 8l-93 64l-93 -64q-11 -8 -23 -8q-17 0 -28.5 9.5z" />
    <glyph glyph-name="uni0208" unicode="&#x208;" horiz-adv-x="278" 
d="M111.5 11.5q-11.5 11.5 -11.5 27.5v703q0 17 11.5 28t27.5 11q17 0 28 -11t11 -28v-703q0 -16 -11 -27.5t-28 -11.5q-16 0 -27.5 11.5zM67 877l-61 129q-3 8 -3 14q0 16 11 27.5t28 11.5q12 0 22 -7t13 -17l44 -136q2 -8 2 -12q0 -13 -8.5 -21t-19.5 -8q-19 0 -28 19z
M218 877l-61 129q-3 8 -3 14q0 16 11.5 27.5t28.5 11.5q12 0 22 -7t14 -17l42 -136q2 -4 2 -12q0 -13 -8.5 -21t-19.5 -8q-19 0 -28 19z" />
    <glyph glyph-name="Idieresis" unicode="&#xcf;" horiz-adv-x="278" 
d="M111.5 11.5q-11.5 11.5 -11.5 27.5v703q0 17 11.5 28t27.5 11q17 0 28 -11t11 -28v-703q0 -16 -11 -27.5t-28 -11.5q-16 0 -27.5 11.5zM-4 897q-16 16 -16 39t16 39t39 16t39 -16t16 -39t-16 -39t-39 -16t-39 16zM205 897q-16 16 -16 39t16 39t39 16t39 -16t16 -39
t-16 -39t-39 -16t-39 16z" />
    <glyph glyph-name="Idotaccent" unicode="&#x130;" horiz-adv-x="278" 
d="M111.5 11.5q-11.5 11.5 -11.5 27.5v703q0 17 11.5 28t27.5 11q17 0 28 -11t11 -28v-703q0 -16 -11 -27.5t-28 -11.5q-16 0 -27.5 11.5zM99.5 901q-15.5 16 -15.5 39q0 24 16 39t39 15q22 0 38 -15t16 -39q0 -23 -16 -39t-39 -16t-38.5 16z" />
    <glyph glyph-name="uni1ECA" unicode="&#x1eca;" horiz-adv-x="278" 
d="M111.5 11.5q-11.5 11.5 -11.5 27.5v703q0 17 11.5 28t27.5 11q17 0 28 -11t11 -28v-703q0 -16 -11 -27.5t-28 -11.5q-16 0 -27.5 11.5zM99.5 -193q-15.5 16 -15.5 39q0 24 16 39t39 15q22 0 38 -15t16 -39q0 -23 -16 -39t-39 -16t-38.5 16z" />
    <glyph glyph-name="Igrave" unicode="&#xcc;" horiz-adv-x="278" 
d="M111.5 11.5q-11.5 11.5 -11.5 27.5v703q0 17 11.5 28t27.5 11q17 0 28 -11t11 -28v-703q0 -16 -11 -27.5t-28 -11.5q-16 0 -27.5 11.5zM112 881l-113 112q-10 10 -10 27t11 28.5t27 11.5t28 -12l112 -113q10 -9 10 -25q0 -17 -11 -28.5t-28 -11.5q-15 0 -26 11z" />
    <glyph glyph-name="uni1EC8" unicode="&#x1ec8;" horiz-adv-x="278" 
d="M111.5 11.5q-11.5 11.5 -11.5 27.5v703q0 17 11.5 28t27.5 11q17 0 28 -11t11 -28v-703q0 -16 -11 -27.5t-28 -11.5q-16 0 -27.5 11.5zM112.5 842.5q-10.5 10.5 -10.5 25.5v28q0 32 32 39l25 5q41 10 41 44q0 22 -14 34t-36 12q-23 0 -44 -16q-9 -9 -25 -9q-13 0 -22.5 9
t-9.5 23q0 17 12 27q39 31 88 31q51 0 84 -29.5t33 -76.5q0 -44 -28 -68.5t-73 -31.5l8 -13q0 -20 -10 -32t-25 -12t-25.5 10.5z" />
    <glyph glyph-name="uni020A" unicode="&#x20a;" horiz-adv-x="278" 
d="M111.5 11.5q-11.5 11.5 -11.5 27.5v703q0 17 11.5 28t27.5 11q17 0 28 -11t11 -28v-703q0 -16 -11 -27.5t-28 -11.5q-16 0 -27.5 11.5zM247.5 987q45.5 -33 47.5 -84q0 -16 -10.5 -27.5t-26.5 -11.5t-27 10t-11 26q0 24 -22.5 39.5t-59.5 15.5q-35 0 -58 -16t-23 -39
q0 -15 -11 -25.5t-26 -10.5q-16 0 -27 11.5t-11 28.5q0 32 21 58.5t57 42t78 15.5q64 0 109.5 -33z" />
    <glyph glyph-name="Imacron" unicode="&#x12a;" horiz-adv-x="278" 
d="M111.5 11.5q-11.5 11.5 -11.5 27.5v703q0 17 11.5 28t27.5 11q17 0 28 -11t11 -28v-703q0 -16 -11 -27.5t-28 -11.5q-16 0 -27.5 11.5zM-19 900q-11 10 -11 26t11 26t28 10h259q16 0 27.5 -10t11.5 -26t-11.5 -26t-27.5 -10h-259q-17 0 -28 10z" />
    <glyph glyph-name="Iogonek" unicode="&#x12e;" horiz-adv-x="278" 
d="M245 -156.5q11 -11.5 11 -27.5q0 -18 -13 -31l-40 -26q-30 -21 -64 -21q-48 0 -82.5 34.5t-34.5 82.5q0 55 49 96q26 19 34 39q7 10 14 15q-19 12 -19 34v703q0 17 11.5 28t27.5 11q17 0 28 -11t11 -28v-703q0 -22 -19 -34q17 -10 19 -33q0 -40 -62 -85q-16 -12 -16 -32
q0 -17 11.5 -28t27.5 -11q12 0 21 6l34 25q11 8 23 8q17 0 28 -11.5z" />
    <glyph glyph-name="Itilde" unicode="&#x128;" horiz-adv-x="278" 
d="M111.5 11.5q-11.5 11.5 -11.5 27.5v703q0 17 11.5 28t27.5 11q17 0 28 -11t11 -28v-703q0 -16 -11 -27.5t-28 -11.5q-16 0 -27.5 11.5zM125 913q-16 15 -25.5 21t-19.5 6q-11 0 -19.5 -9t-18.5 -28q-13 -21 -32 -21q-15 0 -24 9t-9 22q0 9 4 17q19 39 42 56.5t53 17.5
q26 0 41.5 -9.5t37.5 -28.5q16 -14 24.5 -19t16.5 -5q7 0 13 5.5t12 18.5q5 11 15 17.5t20 6.5q4 0 10 -2q24 -10 24 -30q0 -9 -4 -16q-17 -35 -37 -50.5t-46 -15.5q-41 0 -78 37z" />
    <glyph glyph-name="J" unicode="J" horiz-adv-x="614" 
d="M160.5 21q-53.5 31 -84.5 84.5t-31 118.5q0 17 11 28t28 11t28 -11t11 -28q0 -45 21 -81.5t57 -57.5t79 -21t79 21.5t56.5 58t20.5 80.5v518q0 17 11.5 28t27.5 11q17 0 28 -11t11 -28v-518q0 -65 -31 -118.5t-84.5 -84.5t-118.5 -31q-66 0 -119.5 31z" />
    <glyph glyph-name="Jcircumflex" unicode="&#x134;" horiz-adv-x="614" 
d="M160.5 21q-53.5 31 -84.5 84.5t-31 118.5q0 17 11 28t28 11t28 -11t11 -28q0 -45 21 -81.5t57 -57.5t79 -21t79 21.5t56.5 58t20.5 80.5v518q0 17 11.5 28t27.5 11q17 0 28 -11t11 -28v-518q0 -65 -31 -118.5t-84.5 -84.5t-118.5 -31q-66 0 -119.5 31zM330.5 877.5
q-11.5 9.5 -11.5 25.5q0 21 19 34l118 78q8 5 19 5q10 0 20 -5l117 -78q19 -13 19 -34q0 -15 -11 -25t-28 -10q-11 0 -24 8l-93 64l-93 -64q-11 -8 -23 -8q-17 0 -28.5 9.5z" />
    <glyph glyph-name="K" unicode="K" horiz-adv-x="655" 
d="M111.5 11.5q-11.5 11.5 -11.5 27.5v703q0 16 11.5 27.5t27.5 11.5q17 0 28 -11t11 -28v-340l365 365q14 14 31 14t26.5 -10t9.5 -25q0 -18 -13 -32l-274 -274l277 -378q8 -13 8 -24q0 -15 -10.5 -26.5t-25.5 -11.5q-22 0 -33 17l-272 368l-89 -90v-256q0 -16 -11 -27.5
t-28 -11.5q-16 0 -27.5 11.5z" />
    <glyph glyph-name="Kcommaaccent" unicode="&#x136;" horiz-adv-x="655" 
d="M111.5 11.5q-11.5 11.5 -11.5 27.5v703q0 16 11.5 27.5t27.5 11.5q17 0 28 -11t11 -28v-340l365 365q14 14 31 14t26.5 -10t9.5 -25q0 -18 -13 -32l-274 -274l277 -378q8 -13 8 -24q0 -15 -10.5 -26.5t-25.5 -11.5q-22 0 -33 17l-272 368l-89 -90v-256q0 -16 -11 -27.5
t-28 -11.5q-16 0 -27.5 11.5zM251.5 -218q-38.5 20 -38.5 51q0 13 8 20.5t21 7.5q11 0 19 -4t19 -13q12 -11 25 -17.5t34 -6.5q58 0 58 43q0 19 -17 30t-52 11q-21 0 -33 7t-12 20q0 14 12 22t35 8q55 0 90.5 -27.5t35.5 -70.5q0 -46 -35 -73.5t-87 -27.5q-44 0 -82.5 20z
" />
    <glyph glyph-name="L" unicode="L" horiz-adv-x="633" 
d="M111.5 11.5q-11.5 11.5 -11.5 27.5v703q0 16 11.5 27.5t27.5 11.5q17 0 28 -11t11 -28v-668h391q17 0 28 -10.5t11 -26.5t-11 -26.5t-28 -10.5h-430q-16 0 -27.5 11.5z" />
    <glyph glyph-name="Lacute" unicode="&#x139;" horiz-adv-x="633" 
d="M111.5 11.5q-11.5 11.5 -11.5 27.5v703q0 16 11.5 27.5t27.5 11.5q17 0 28 -11t11 -28v-668h391q17 0 28 -10.5t11 -26.5t-11 -26.5t-28 -10.5h-430q-16 0 -27.5 11.5zM104 875.5q-11 11.5 -11 27.5t9 26l113 113q11 11 27 11q17 0 28 -11.5t11 -28.5q0 -16 -11 -26
l-112 -113q-10 -10 -26 -10q-17 0 -28 11.5z" />
    <glyph glyph-name="Lcaron" unicode="&#x13d;" horiz-adv-x="633" 
d="M111.5 11.5q-11.5 11.5 -11.5 27.5v703q0 16 11.5 27.5t27.5 11.5q17 0 28 -11t11 -28v-668h391q17 0 28 -10.5t11 -26.5t-11 -26.5t-28 -10.5h-430q-16 0 -27.5 11.5zM369 529.5q-6 5.5 -6 15.5q0 12 16 37q13 19 21 36.5t10 39.5q1 13 -1 22.5t-7 22.5q-3 8 -6 19
t-3 23q0 20 12.5 29.5t33.5 9.5q25 0 39 -21t14 -54q0 -7 -2 -23q-5 -34 -24 -72t-42 -64t-39 -26q-10 0 -16 5.5z" />
    <glyph glyph-name="Lcommaaccent" unicode="&#x13b;" horiz-adv-x="633" 
d="M111.5 11.5q-11.5 11.5 -11.5 27.5v703q0 16 11.5 27.5t27.5 11.5q17 0 28 -11t11 -28v-668h391q17 0 28 -10.5t11 -26.5t-11 -26.5t-28 -10.5h-430q-16 0 -27.5 11.5zM249.5 -218q-38.5 20 -38.5 51q0 13 8 20.5t21 7.5q11 0 19 -4t19 -13q12 -11 25 -17.5t34 -6.5
q58 0 58 43q0 19 -17 30t-52 11q-21 0 -33 7t-12 20q0 14 12 22t35 8q55 0 90.5 -27.5t35.5 -70.5q0 -46 -35 -73.5t-87 -27.5q-44 0 -82.5 20z" />
    <glyph glyph-name="Ldot" unicode="&#x13f;" horiz-adv-x="586" 
d="M111.5 11.5q-11.5 11.5 -11.5 27.5v703q0 16 11.5 27.5t27.5 11.5q17 0 28 -11t11 -28v-668h391q17 0 28 -10.5t11 -26.5t-11 -26.5t-28 -10.5h-430q-16 0 -27.5 11.5zM398.5 330q-17.5 17 -17.5 41q0 25 17 42t42 17q24 0 40.5 -17.5t16.5 -41.5t-16.5 -41t-40.5 -17
t-41.5 17z" />
    <glyph glyph-name="Lslash" unicode="&#x141;" horiz-adv-x="664" 
d="M128.5 11.5q-11.5 11.5 -11.5 27.5v260l-39 -39q-11 -11 -27 -11t-27.5 11.5t-11.5 27.5q0 15 11 28l94 93v333q0 17 11.5 28t27.5 11q17 0 28 -11t11 -28v-257l115 113q14 12 28 12q16 0 27.5 -12t11.5 -28q0 -15 -12 -27l-170 -167v-298h391q16 0 27.5 -11.5
t11.5 -27.5t-11 -27.5t-28 -11.5h-430q-16 0 -27.5 11.5z" />
    <glyph glyph-name="M" unicode="M" horiz-adv-x="981" 
d="M870 770q11 -11 11 -28v-703q0 -16 -11 -27.5t-27 -11.5q-17 0 -28.5 11.5t-11.5 27.5v566l-278 -568q-12 -19 -34 -19q-25 0 -36 24l-277 554v-557q0 -16 -11 -27.5t-28 -11.5q-16 0 -27.5 11.5t-11.5 27.5v703q0 17 11.5 28t27.5 11q23 0 35 -20l320 -636l314 636
q12 20 35 20q16 0 27 -11z" />
    <glyph glyph-name="N" unicode="N" horiz-adv-x="825" 
d="M111 11q-11 11 -11 28v703q0 17 11 28t28 11q18 0 30 -14l478 -628v603q0 17 11.5 28t27.5 11q17 0 28 -11t11 -28v-703q0 -16 -11 -27.5t-28 -11.5q-20 0 -29 13l-479 628v-602q0 -16 -11 -27.5t-28 -11.5t-28 11z" />
    <glyph glyph-name="Nacute" unicode="&#x143;" horiz-adv-x="825" 
d="M111 11q-11 11 -11 28v703q0 17 11 28t28 11q18 0 30 -14l478 -628v603q0 17 11.5 28t27.5 11q17 0 28 -11t11 -28v-703q0 -16 -11 -27.5t-28 -11.5q-20 0 -29 13l-479 628v-602q0 -16 -11 -27.5t-28 -11.5t-28 11zM378 875.5q-11 11.5 -11 27.5t9 26l113 113
q11 11 27 11q17 0 28 -11.5t11 -28.5q0 -16 -11 -26l-112 -113q-10 -10 -26 -10q-17 0 -28 11.5z" />
    <glyph glyph-name="Ncaron" unicode="&#x147;" horiz-adv-x="825" 
d="M111 11q-11 11 -11 28v703q0 17 11 28t28 11q18 0 30 -14l478 -628v603q0 17 11.5 28t27.5 11q17 0 28 -11t11 -28v-703q0 -16 -11 -27.5t-28 -11.5q-20 0 -29 13l-479 628v-602q0 -16 -11 -27.5t-28 -11.5t-28 11zM394 878l-118 78q-19 13 -19 33q0 13 8.5 21t22.5 8
q15 0 32 -11l93 -63l93 62q17 12 33 12q14 0 22 -8.5t8 -20.5q0 -20 -19 -33l-117 -78q-7 -5 -20 -5t-19 5z" />
    <glyph glyph-name="Ncommaaccent" unicode="&#x145;" horiz-adv-x="825" 
d="M111 11q-11 11 -11 28v703q0 17 11 28t28 11q18 0 30 -14l478 -628v603q0 17 11.5 28t27.5 11q17 0 28 -11t11 -28v-703q0 -16 -11 -27.5t-28 -11.5q-20 0 -29 13l-479 628v-602q0 -16 -11 -27.5t-28 -11.5t-28 11zM336.5 -218q-38.5 20 -38.5 51q0 13 8 20.5t21 7.5
q11 0 19 -4t19 -13q12 -11 25 -17.5t34 -6.5q58 0 58 43q0 19 -17 30t-52 11q-21 0 -33 7t-12 20q0 14 12 22t35 8q55 0 90.5 -27.5t35.5 -70.5q0 -46 -35 -73.5t-87 -27.5q-44 0 -82.5 20z" />
    <glyph glyph-name="Eng" unicode="&#x14a;" horiz-adv-x="716" 
d="M514 743q62 -38 97 -106.5t35 -156.5v-138q0 -172 -57.5 -261.5t-165.5 -89.5q-62 0 -112 29.5t-65 79.5q-2 8 -2 12q0 11 7 19.5t19 9.5q12 3 24 -4.5t19 -22.5q11 -23 42 -36.5t66 -13.5q76 0 111.5 68t35.5 210v132q0 107 -51.5 169.5t-145.5 62.5q-57 0 -100.5 -20
t-68 -56t-24.5 -82v-509q0 -16 -11 -27.5t-28 -11.5q-16 0 -27.5 11.5t-11.5 27.5v703q0 17 11.5 28t27.5 11q17 0 28 -11t11 -28v-59q34 47 83.5 72.5t112.5 25.5q78 0 140 -38z" />
    <glyph glyph-name="Ntilde" unicode="&#xd1;" horiz-adv-x="825" 
d="M111 11q-11 11 -11 28v703q0 17 11 28t28 11q18 0 30 -14l478 -628v603q0 17 11.5 28t27.5 11q17 0 28 -11t11 -28v-703q0 -16 -11 -27.5t-28 -11.5q-20 0 -29 13l-479 628v-602q0 -16 -11 -27.5t-28 -11.5t-28 11zM468 870q-22 9 -47 24q-21 13 -34 18t-26 5
q-37 0 -66 -35q-6 -9 -15 -14t-18 -5t-17 5q-7 4 -11.5 11.5t-4.5 15.5q0 12 7 22q25 32 58 49.5t69 17.5q27 0 47 -8t46 -24q23 -14 34.5 -19t26.5 -5q31 0 49 20q15 17 31 17q8 0 16 -5q18 -9 18 -28q0 -11 -8 -22q-40 -49 -105 -49q-28 0 -50 9z" />
    <glyph glyph-name="O" unicode="O" horiz-adv-x="921" 
d="M256 42q-91 52 -142.5 143.5t-51.5 205.5t51.5 205t142.5 143t205 52q113 0 204.5 -52t143 -143t51.5 -205t-51.5 -205.5t-143 -143.5t-204.5 -52q-114 0 -205 52zM625.5 107q73.5 43 115.5 117.5t42 166.5q0 91 -42 165.5t-115.5 117.5t-164.5 43q-92 0 -165.5 -43
t-115.5 -117.5t-42 -165.5q0 -92 42 -166.5t115.5 -117.5t165.5 -43q91 0 164.5 43z" />
    <glyph glyph-name="Oacute" unicode="&#xd3;" horiz-adv-x="921" 
d="M256 42q-91 52 -142.5 143.5t-51.5 205.5t51.5 205t142.5 143t205 52q113 0 204.5 -52t143 -143t51.5 -205t-51.5 -205.5t-143 -143.5t-204.5 -52q-114 0 -205 52zM625.5 107q73.5 43 115.5 117.5t42 166.5q0 91 -42 165.5t-115.5 117.5t-164.5 43q-92 0 -165.5 -43
t-115.5 -117.5t-42 -165.5q0 -92 42 -166.5t115.5 -117.5t165.5 -43q91 0 164.5 43zM426 875.5q-11 11.5 -11 27.5t9 26l113 113q11 11 27 11q17 0 28 -11.5t11 -28.5q0 -16 -11 -26l-112 -113q-10 -10 -26 -10q-17 0 -28 11.5z" />
    <glyph glyph-name="Obreve" unicode="&#x14e;" horiz-adv-x="921" 
d="M256 42q-91 52 -142.5 143.5t-51.5 205.5t51.5 205t142.5 143t205 52q113 0 204.5 -52t143 -143t51.5 -205t-51.5 -205.5t-143 -143.5t-204.5 -52q-114 0 -205 52zM625.5 107q73.5 43 115.5 117.5t42 166.5q0 91 -42 165.5t-115.5 117.5t-164.5 43q-92 0 -165.5 -43
t-115.5 -117.5t-42 -165.5q0 -92 42 -166.5t115.5 -117.5t165.5 -43q91 0 164.5 43zM382 880.5q-36 15.5 -57 42t-21 58.5q0 17 11 28.5t27 11.5q15 0 26 -10.5t11 -25.5q0 -23 23 -39t58 -16q37 0 59.5 15.5t22.5 39.5q0 16 11 26t27 10t26.5 -11.5t10.5 -27.5
q-2 -51 -47.5 -84t-109.5 -33q-42 0 -78 15.5z" />
    <glyph glyph-name="Ocircumflex" unicode="&#xd4;" horiz-adv-x="921" 
d="M256 42q-91 52 -142.5 143.5t-51.5 205.5t51.5 205t142.5 143t205 52q113 0 204.5 -52t143 -143t51.5 -205t-51.5 -205.5t-143 -143.5t-204.5 -52q-114 0 -205 52zM625.5 107q73.5 43 115.5 117.5t42 166.5q0 91 -42 165.5t-115.5 117.5t-164.5 43q-92 0 -165.5 -43
t-115.5 -117.5t-42 -165.5q0 -92 42 -166.5t115.5 -117.5t165.5 -43q91 0 164.5 43zM316.5 877.5q-11.5 9.5 -11.5 25.5q0 21 19 34l118 78q8 5 19 5q10 0 20 -5l117 -78q19 -13 19 -34q0 -15 -11 -25t-28 -10q-11 0 -24 8l-93 64l-93 -64q-11 -8 -23 -8q-17 0 -28.5 9.5z
" />
    <glyph glyph-name="uni1ED0" unicode="&#x1ed0;" horiz-adv-x="921" 
d="M256 42q-91 52 -142.5 143.5t-51.5 205.5t51.5 205t142.5 143t205 52q113 0 204.5 -52t143 -143t51.5 -205t-51.5 -205.5t-143 -143.5t-204.5 -52q-114 0 -205 52zM625.5 107q73.5 43 115.5 117.5t42 166.5q0 91 -42 165.5t-115.5 117.5t-164.5 43q-92 0 -165.5 -43
t-115.5 -117.5t-42 -165.5q0 -92 42 -166.5t115.5 -117.5t165.5 -43q91 0 164.5 43zM316.5 877.5q-11.5 9.5 -11.5 25.5q0 21 19 34l118 78q8 5 19 5q10 0 20 -5l117 -78q19 -13 19 -34q0 -15 -11 -25t-28 -10q-11 0 -24 8l-93 64l-93 -64q-11 -8 -23 -8q-17 0 -28.5 9.5z
M522 1044.5q-11 11.5 -11 27.5t9 26l113 113q11 11 27 11q17 0 28 -11.5t11 -28.5q0 -16 -11 -26l-112 -113q-10 -10 -26 -10q-17 0 -28 11.5z" />
    <glyph glyph-name="uni1ED8" unicode="&#x1ed8;" horiz-adv-x="921" 
d="M256 42q-91 52 -142.5 143.5t-51.5 205.5t51.5 205t142.5 143t205 52q113 0 204.5 -52t143 -143t51.5 -205t-51.5 -205.5t-143 -143.5t-204.5 -52q-114 0 -205 52zM625.5 107q73.5 43 115.5 117.5t42 166.5q0 91 -42 165.5t-115.5 117.5t-164.5 43q-92 0 -165.5 -43
t-115.5 -117.5t-42 -165.5q0 -92 42 -166.5t115.5 -117.5t165.5 -43q91 0 164.5 43zM316.5 877.5q-11.5 9.5 -11.5 25.5q0 21 19 34l118 78q8 5 19 5q10 0 20 -5l117 -78q19 -13 19 -34q0 -15 -11 -25t-28 -10q-11 0 -24 8l-93 64l-93 -64q-11 -8 -23 -8q-17 0 -28.5 9.5z
M421.5 -193q-15.5 16 -15.5 39q0 24 16 39t39 15q22 0 38 -15t16 -39q0 -23 -16 -39t-39 -16t-38.5 16z" />
    <glyph glyph-name="uni1ED2" unicode="&#x1ed2;" horiz-adv-x="921" 
d="M256 42q-91 52 -142.5 143.5t-51.5 205.5t51.5 205t142.5 143t205 52q113 0 204.5 -52t143 -143t51.5 -205t-51.5 -205.5t-143 -143.5t-204.5 -52q-114 0 -205 52zM625.5 107q73.5 43 115.5 117.5t42 166.5q0 91 -42 165.5t-115.5 117.5t-164.5 43q-92 0 -165.5 -43
t-115.5 -117.5t-42 -165.5q0 -92 42 -166.5t115.5 -117.5t165.5 -43q91 0 164.5 43zM316.5 877.5q-11.5 9.5 -11.5 25.5q0 21 19 34l118 78q8 5 19 5q10 0 20 -5l117 -78q19 -13 19 -34q0 -15 -11 -25t-28 -10q-11 0 -24 8l-93 64l-93 -64q-11 -8 -23 -8q-17 0 -28.5 9.5z
M530 1050l-113 112q-10 10 -10 27t11 28.5t27 11.5t28 -12l112 -113q10 -9 10 -25q0 -17 -11 -28.5t-28 -11.5q-15 0 -26 11z" />
    <glyph glyph-name="uni1ED4" unicode="&#x1ed4;" horiz-adv-x="921" 
d="M256 42q-91 52 -142.5 143.5t-51.5 205.5t51.5 205t142.5 143t205 52q113 0 204.5 -52t143 -143t51.5 -205t-51.5 -205.5t-143 -143.5t-204.5 -52q-114 0 -205 52zM625.5 107q73.5 43 115.5 117.5t42 166.5q0 91 -42 165.5t-115.5 117.5t-164.5 43q-92 0 -165.5 -43
t-115.5 -117.5t-42 -165.5q0 -92 42 -166.5t115.5 -117.5t165.5 -43q91 0 164.5 43zM319.5 877.5q-11.5 9.5 -11.5 25.5q0 21 19 34l118 78q8 5 19 5q10 0 20 -5l117 -78q19 -13 19 -34q0 -15 -11 -25t-28 -10q-11 0 -24 8l-93 64l-93 -64q-11 -8 -23 -8q-17 0 -28.5 9.5z
M533.5 1011.5q-10.5 10.5 -10.5 25.5v28q0 32 32 39l25 5q41 10 41 44q0 22 -14 34t-36 12q-23 0 -44 -16q-9 -9 -25 -9q-13 0 -22.5 9t-9.5 23q0 17 12 27q39 31 88 31q51 0 84 -29.5t33 -76.5q0 -44 -28 -68.5t-73 -31.5l8 -13q0 -20 -10 -32t-25 -12t-25.5 10.5z" />
    <glyph glyph-name="uni1ED6" unicode="&#x1ed6;" horiz-adv-x="921" 
d="M256 42q-91 52 -142.5 143.5t-51.5 205.5t51.5 205t142.5 143t205 52q113 0 204.5 -52t143 -143t51.5 -205t-51.5 -205.5t-143 -143.5t-204.5 -52q-114 0 -205 52zM625.5 107q73.5 43 115.5 117.5t42 166.5q0 91 -42 165.5t-115.5 117.5t-164.5 43q-92 0 -165.5 -43
t-115.5 -117.5t-42 -165.5q0 -92 42 -166.5t115.5 -117.5t165.5 -43q91 0 164.5 43zM318.5 877.5q-11.5 9.5 -11.5 25.5q0 21 19 34l118 78q8 5 19 5q10 0 20 -5l117 -78q19 -13 19 -34q0 -15 -11 -25t-28 -10q-11 0 -24 8l-93 64l-93 -64q-11 -8 -23 -8q-17 0 -28.5 9.5z
M444 1084q-16 15 -25.5 21t-19.5 6q-11 0 -19.5 -9t-18.5 -28q-13 -21 -32 -21q-15 0 -24 9t-9 22q0 9 4 17q19 39 42 56.5t53 17.5q26 0 41.5 -9.5t37.5 -28.5q16 -14 24.5 -19t16.5 -5q7 0 13 5.5t12 18.5q5 11 15 17.5t20 6.5q4 0 10 -2q24 -10 24 -30q0 -9 -4 -16
q-17 -35 -37 -50.5t-46 -15.5q-41 0 -78 37z" />
    <glyph glyph-name="uni020C" unicode="&#x20c;" horiz-adv-x="921" 
d="M256 42q-91 52 -142.5 143.5t-51.5 205.5t51.5 205t142.5 143t205 52q113 0 204.5 -52t143 -143t51.5 -205t-51.5 -205.5t-143 -143.5t-204.5 -52q-114 0 -205 52zM625.5 107q73.5 43 115.5 117.5t42 166.5q0 91 -42 165.5t-115.5 117.5t-164.5 43q-92 0 -165.5 -43
t-115.5 -117.5t-42 -165.5q0 -92 42 -166.5t115.5 -117.5t165.5 -43q91 0 164.5 43zM389 877l-61 129q-3 8 -3 14q0 16 11 27.5t28 11.5q12 0 22 -7t13 -17l44 -136q2 -8 2 -12q0 -13 -8.5 -21t-19.5 -8q-19 0 -28 19zM540 877l-61 129q-3 8 -3 14q0 16 11.5 27.5t28.5 11.5
q12 0 22 -7t14 -17l42 -136q2 -4 2 -12q0 -13 -8.5 -21t-19.5 -8q-19 0 -28 19z" />
    <glyph glyph-name="Odieresis" unicode="&#xd6;" horiz-adv-x="921" 
d="M256 42q-91 52 -142.5 143.5t-51.5 205.5t51.5 205t142.5 143t205 52q113 0 204.5 -52t143 -143t51.5 -205t-51.5 -205.5t-143 -143.5t-204.5 -52q-114 0 -205 52zM625.5 107q73.5 43 115.5 117.5t42 166.5q0 91 -42 165.5t-115.5 117.5t-164.5 43q-92 0 -165.5 -43
t-115.5 -117.5t-42 -165.5q0 -92 42 -166.5t115.5 -117.5t165.5 -43q91 0 164.5 43zM318 897q-16 16 -16 39t16 39t39 16t39 -16t16 -39t-16 -39t-39 -16t-39 16zM527 897q-16 16 -16 39t16 39t39 16t39 -16t16 -39t-16 -39t-39 -16t-39 16z" />
    <glyph glyph-name="uni022A" unicode="&#x22a;" horiz-adv-x="921" 
d="M256 42q-91 52 -142.5 143.5t-51.5 205.5t51.5 205t142.5 143t205 52q113 0 204.5 -52t143 -143t51.5 -205t-51.5 -205.5t-143 -143.5t-204.5 -52q-114 0 -205 52zM625.5 107q73.5 43 115.5 117.5t42 166.5q0 91 -42 165.5t-115.5 117.5t-164.5 43q-92 0 -165.5 -43
t-115.5 -117.5t-42 -165.5q0 -92 42 -166.5t115.5 -117.5t165.5 -43q91 0 164.5 43zM318 897q-16 16 -16 39t16 39t39 16t39 -16t16 -39t-16 -39t-39 -16t-39 16zM527 897q-16 16 -16 39t16 39t39 16t39 -16t16 -39t-16 -39t-39 -16t-39 16zM303 1092q-11 10 -11 26t11 26
t28 10h259q16 0 27.5 -10t11.5 -26t-11.5 -26t-27.5 -10h-259q-17 0 -28 10z" />
    <glyph glyph-name="uni0230" unicode="&#x230;" horiz-adv-x="921" 
d="M256 42q-91 52 -142.5 143.5t-51.5 205.5t51.5 205t142.5 143t205 52q113 0 204.5 -52t143 -143t51.5 -205t-51.5 -205.5t-143 -143.5t-204.5 -52q-114 0 -205 52zM625.5 107q73.5 43 115.5 117.5t42 166.5q0 91 -42 165.5t-115.5 117.5t-164.5 43q-92 0 -165.5 -43
t-115.5 -117.5t-42 -165.5q0 -92 42 -166.5t115.5 -117.5t165.5 -43q91 0 164.5 43zM421.5 901q-15.5 16 -15.5 39q0 24 16 39t39 15q22 0 38 -15t16 -39q0 -23 -16 -39t-39 -16t-38.5 16zM303 1068q-11 10 -11 26t11 26t28 10h259q16 0 27.5 -10t11.5 -26t-11.5 -26
t-27.5 -10h-259q-17 0 -28 10z" />
    <glyph glyph-name="uni1ECC" unicode="&#x1ecc;" horiz-adv-x="921" 
d="M256 42q-91 52 -142.5 143.5t-51.5 205.5t51.5 205t142.5 143t205 52q113 0 204.5 -52t143 -143t51.5 -205t-51.5 -205.5t-143 -143.5t-204.5 -52q-114 0 -205 52zM625.5 107q73.5 43 115.5 117.5t42 166.5q0 91 -42 165.5t-115.5 117.5t-164.5 43q-92 0 -165.5 -43
t-115.5 -117.5t-42 -165.5q0 -92 42 -166.5t115.5 -117.5t165.5 -43q91 0 164.5 43zM421.5 -193q-15.5 16 -15.5 39q0 24 16 39t39 15q22 0 38 -15t16 -39q0 -23 -16 -39t-39 -16t-38.5 16z" />
    <glyph glyph-name="Ograve" unicode="&#xd2;" horiz-adv-x="921" 
d="M256 42q-91 52 -142.5 143.5t-51.5 205.5t51.5 205t142.5 143t205 52q113 0 204.5 -52t143 -143t51.5 -205t-51.5 -205.5t-143 -143.5t-204.5 -52q-114 0 -205 52zM625.5 107q73.5 43 115.5 117.5t42 166.5q0 91 -42 165.5t-115.5 117.5t-164.5 43q-92 0 -165.5 -43
t-115.5 -117.5t-42 -165.5q0 -92 42 -166.5t115.5 -117.5t165.5 -43q91 0 164.5 43zM434 881l-113 112q-10 10 -10 27t11 28.5t27 11.5t28 -12l112 -113q10 -9 10 -25q0 -17 -11 -28.5t-28 -11.5q-15 0 -26 11z" />
    <glyph glyph-name="uni1ECE" unicode="&#x1ece;" horiz-adv-x="921" 
d="M256 42q-91 52 -142.5 143.5t-51.5 205.5t51.5 205t142.5 143t205 52q113 0 204.5 -52t143 -143t51.5 -205t-51.5 -205.5t-143 -143.5t-204.5 -52q-114 0 -205 52zM625.5 107q73.5 43 115.5 117.5t42 166.5q0 91 -42 165.5t-115.5 117.5t-164.5 43q-92 0 -165.5 -43
t-115.5 -117.5t-42 -165.5q0 -92 42 -166.5t115.5 -117.5t165.5 -43q91 0 164.5 43zM434.5 842.5q-10.5 10.5 -10.5 25.5v28q0 32 32 39l25 5q41 10 41 44q0 22 -14 34t-36 12q-23 0 -44 -16q-9 -9 -25 -9q-13 0 -22.5 9t-9.5 23q0 17 12 27q39 31 88 31q51 0 84 -29.5
t33 -76.5q0 -44 -28 -68.5t-73 -31.5l8 -13q0 -20 -10 -32t-25 -12t-25.5 10.5z" />
    <glyph glyph-name="Ohorn" unicode="&#x1a0;" horiz-adv-x="921" 
d="M828.5 554.5q31.5 -75.5 31.5 -163.5q0 -114 -51.5 -205.5t-143 -143.5t-204.5 -52q-114 0 -205 52t-142.5 143.5t-51.5 205.5t51.5 205t142.5 143t205 52q105 0 192 -45h40q18 0 30.5 15.5t12.5 39.5v21q0 17 9.5 27.5t25.5 10.5q17 0 26.5 -12.5t9.5 -31.5v-15
q0 -40 -18.5 -71t-49.5 -45q58 -55 89.5 -130.5zM625.5 107q73.5 43 115.5 117.5t42 166.5q0 91 -42 165.5t-115.5 117.5t-164.5 43q-92 0 -165.5 -43t-115.5 -117.5t-42 -165.5q0 -92 42 -166.5t115.5 -117.5t165.5 -43q91 0 164.5 43z" />
    <glyph glyph-name="uni1EDA" unicode="&#x1eda;" horiz-adv-x="921" 
d="M828.5 554.5q31.5 -75.5 31.5 -163.5q0 -114 -51.5 -205.5t-143 -143.5t-204.5 -52q-114 0 -205 52t-142.5 143.5t-51.5 205.5t51.5 205t142.5 143t205 52q105 0 192 -45h40q18 0 30.5 15.5t12.5 39.5v21q0 17 9.5 27.5t25.5 10.5q17 0 26.5 -12.5t9.5 -31.5v-15
q0 -40 -18.5 -71t-49.5 -45q58 -55 89.5 -130.5zM625.5 107q73.5 43 115.5 117.5t42 166.5q0 91 -42 165.5t-115.5 117.5t-164.5 43q-92 0 -165.5 -43t-115.5 -117.5t-42 -165.5q0 -92 42 -166.5t115.5 -117.5t165.5 -43q91 0 164.5 43zM426 875.5q-11 11.5 -11 27.5t9 26
l113 113q11 11 27 11q17 0 28 -11.5t11 -28.5q0 -16 -11 -26l-112 -113q-10 -10 -26 -10q-17 0 -28 11.5z" />
    <glyph glyph-name="uni1EE2" unicode="&#x1ee2;" horiz-adv-x="921" 
d="M828.5 554.5q31.5 -75.5 31.5 -163.5q0 -114 -51.5 -205.5t-143 -143.5t-204.5 -52q-114 0 -205 52t-142.5 143.5t-51.5 205.5t51.5 205t142.5 143t205 52q105 0 192 -45h40q18 0 30.5 15.5t12.5 39.5v21q0 17 9.5 27.5t25.5 10.5q17 0 26.5 -12.5t9.5 -31.5v-15
q0 -40 -18.5 -71t-49.5 -45q58 -55 89.5 -130.5zM625.5 107q73.5 43 115.5 117.5t42 166.5q0 91 -42 165.5t-115.5 117.5t-164.5 43q-92 0 -165.5 -43t-115.5 -117.5t-42 -165.5q0 -92 42 -166.5t115.5 -117.5t165.5 -43q91 0 164.5 43zM421.5 -193q-15.5 16 -15.5 39
q0 24 16 39t39 15q22 0 38 -15t16 -39q0 -23 -16 -39t-39 -16t-38.5 16z" />
    <glyph glyph-name="uni1EDC" unicode="&#x1edc;" horiz-adv-x="921" 
d="M828.5 554.5q31.5 -75.5 31.5 -163.5q0 -114 -51.5 -205.5t-143 -143.5t-204.5 -52q-114 0 -205 52t-142.5 143.5t-51.5 205.5t51.5 205t142.5 143t205 52q105 0 192 -45h40q18 0 30.5 15.5t12.5 39.5v21q0 17 9.5 27.5t25.5 10.5q17 0 26.5 -12.5t9.5 -31.5v-15
q0 -40 -18.5 -71t-49.5 -45q58 -55 89.5 -130.5zM625.5 107q73.5 43 115.5 117.5t42 166.5q0 91 -42 165.5t-115.5 117.5t-164.5 43q-92 0 -165.5 -43t-115.5 -117.5t-42 -165.5q0 -92 42 -166.5t115.5 -117.5t165.5 -43q91 0 164.5 43zM434 881l-113 112q-10 10 -10 27
t11 28.5t27 11.5t28 -12l112 -113q10 -9 10 -25q0 -17 -11 -28.5t-28 -11.5q-15 0 -26 11z" />
    <glyph glyph-name="uni1EDE" unicode="&#x1ede;" horiz-adv-x="921" 
d="M828.5 554.5q31.5 -75.5 31.5 -163.5q0 -114 -51.5 -205.5t-143 -143.5t-204.5 -52q-114 0 -205 52t-142.5 143.5t-51.5 205.5t51.5 205t142.5 143t205 52q105 0 192 -45h40q18 0 30.5 15.5t12.5 39.5v21q0 17 9.5 27.5t25.5 10.5q17 0 26.5 -12.5t9.5 -31.5v-15
q0 -40 -18.5 -71t-49.5 -45q58 -55 89.5 -130.5zM625.5 107q73.5 43 115.5 117.5t42 166.5q0 91 -42 165.5t-115.5 117.5t-164.5 43q-92 0 -165.5 -43t-115.5 -117.5t-42 -165.5q0 -92 42 -166.5t115.5 -117.5t165.5 -43q91 0 164.5 43zM434.5 842.5q-10.5 10.5 -10.5 25.5
v28q0 32 32 39l25 5q41 10 41 44q0 22 -14 34t-36 12q-23 0 -44 -16q-9 -9 -25 -9q-13 0 -22.5 9t-9.5 23q0 17 12 27q39 31 88 31q51 0 84 -29.5t33 -76.5q0 -44 -28 -68.5t-73 -31.5l8 -13q0 -20 -10 -32t-25 -12t-25.5 10.5z" />
    <glyph glyph-name="uni1EE0" unicode="&#x1ee0;" horiz-adv-x="921" 
d="M828.5 554.5q31.5 -75.5 31.5 -163.5q0 -114 -51.5 -205.5t-143 -143.5t-204.5 -52q-114 0 -205 52t-142.5 143.5t-51.5 205.5t51.5 205t142.5 143t205 52q105 0 192 -45h40q18 0 30.5 15.5t12.5 39.5v21q0 17 9.5 27.5t25.5 10.5q17 0 26.5 -12.5t9.5 -31.5v-15
q0 -40 -18.5 -71t-49.5 -45q58 -55 89.5 -130.5zM625.5 107q73.5 43 115.5 117.5t42 166.5q0 91 -42 165.5t-115.5 117.5t-164.5 43q-92 0 -165.5 -43t-115.5 -117.5t-42 -165.5q0 -92 42 -166.5t115.5 -117.5t165.5 -43q91 0 164.5 43zM516 870q-22 9 -47 24q-21 13 -34 18
t-26 5q-37 0 -66 -35q-6 -9 -15 -14t-18 -5t-17 5q-7 4 -11.5 11.5t-4.5 15.5q0 12 7 22q25 32 58 49.5t69 17.5q27 0 47 -8t46 -24q23 -14 34.5 -19t26.5 -5q31 0 49 20q15 17 31 17q8 0 16 -5q18 -9 18 -28q0 -11 -8 -22q-40 -49 -105 -49q-28 0 -50 9z" />
    <glyph glyph-name="Ohungarumlaut" unicode="&#x150;" horiz-adv-x="921" 
d="M256 42q-91 52 -142.5 143.5t-51.5 205.5t51.5 205t142.5 143t205 52q113 0 204.5 -52t143 -143t51.5 -205t-51.5 -205.5t-143 -143.5t-204.5 -52q-114 0 -205 52zM625.5 107q73.5 43 115.5 117.5t42 166.5q0 91 -42 165.5t-115.5 117.5t-164.5 43q-92 0 -165.5 -43
t-115.5 -117.5t-42 -165.5q0 -92 42 -166.5t115.5 -117.5t165.5 -43q91 0 164.5 43zM363.5 866q-8.5 8 -8.5 21q0 8 2 12l42 136q4 11 14 17.5t22 6.5q17 0 28.5 -11.5t11.5 -27.5q0 -6 -3 -14l-61 -129q-10 -19 -28 -19q-11 0 -19.5 8zM514.5 866q-8.5 8 -8.5 21q0 4 2 12
l44 136q3 10 13 17t22 7q17 0 28 -11.5t11 -27.5q0 -6 -3 -14l-61 -129q-10 -19 -28 -19q-11 0 -19.5 8z" />
    <glyph glyph-name="uni020E" unicode="&#x20e;" horiz-adv-x="921" 
d="M256 42q-91 52 -142.5 143.5t-51.5 205.5t51.5 205t142.5 143t205 52q113 0 204.5 -52t143 -143t51.5 -205t-51.5 -205.5t-143 -143.5t-204.5 -52q-114 0 -205 52zM625.5 107q73.5 43 115.5 117.5t42 166.5q0 91 -42 165.5t-115.5 117.5t-164.5 43q-92 0 -165.5 -43
t-115.5 -117.5t-42 -165.5q0 -92 42 -166.5t115.5 -117.5t165.5 -43q91 0 164.5 43zM569.5 987q45.5 -33 47.5 -84q0 -16 -10.5 -27.5t-26.5 -11.5t-27 10t-11 26q0 24 -22.5 39.5t-59.5 15.5q-35 0 -58 -16t-23 -39q0 -15 -11 -25.5t-26 -10.5q-16 0 -27 11.5t-11 28.5
q0 32 21 58.5t57 42t78 15.5q64 0 109.5 -33z" />
    <glyph glyph-name="Omacron" unicode="&#x14c;" horiz-adv-x="921" 
d="M256 42q-91 52 -142.5 143.5t-51.5 205.5t51.5 205t142.5 143t205 52q113 0 204.5 -52t143 -143t51.5 -205t-51.5 -205.5t-143 -143.5t-204.5 -52q-114 0 -205 52zM625.5 107q73.5 43 115.5 117.5t42 166.5q0 91 -42 165.5t-115.5 117.5t-164.5 43q-92 0 -165.5 -43
t-115.5 -117.5t-42 -165.5q0 -92 42 -166.5t115.5 -117.5t165.5 -43q91 0 164.5 43zM303 900q-11 10 -11 26t11 26t28 10h259q16 0 27.5 -10t11.5 -26t-11.5 -26t-27.5 -10h-259q-17 0 -28 10z" />
    <glyph glyph-name="uni01EA" unicode="&#x1ea;" horiz-adv-x="921" 
d="M813 193.5q-47 -88.5 -130.5 -142t-188.5 -60.5q5 -8 5 -19q0 -40 -62 -85q-16 -12 -16 -32q0 -17 11.5 -28t27.5 -11q12 0 21 6l34 25q11 8 23 8q17 0 28 -11.5t11 -27.5q0 -18 -13 -31l-40 -26q-30 -21 -64 -21q-48 0 -82.5 34.5t-34.5 82.5q0 55 49 96q26 19 34 39
l1 1q-105 8 -188.5 61.5t-130 142t-46.5 196.5q0 114 51.5 205t142.5 143t205 52q113 0 204.5 -52t143 -143t51.5 -205q0 -109 -47 -197.5zM625.5 107q73.5 43 115.5 117.5t42 166.5q0 91 -42 165.5t-115.5 117.5t-164.5 43q-92 0 -165.5 -43t-115.5 -117.5t-42 -165.5
q0 -92 42 -166.5t115.5 -117.5t165.5 -43q91 0 164.5 43z" />
    <glyph glyph-name="Oslash" unicode="&#xd8;" horiz-adv-x="884" 
d="M836.5 534q23.5 -67 23.5 -143q0 -114 -51.5 -205.5t-143 -143.5t-204.5 -52q-79 0 -148 26t-122 73l-81 -81q-8 -8 -21 -8q-14 0 -22.5 9t-8.5 22q0 12 8 20l82 82q-41 53 -63.5 118.5t-22.5 139.5q0 114 51.5 205t142.5 143t205 52q77 0 145 -24.5t120 -70.5l78 77
q8 8 21 8t22.5 -9t9.5 -21q0 -11 -9 -20l-79 -79q44 -51 67.5 -118zM295.5 674q-73.5 -43 -115.5 -117.5t-42 -165.5q0 -119 69 -207l461 461q-42 34 -95 53t-112 19q-92 0 -165.5 -43zM625.5 107q73.5 43 115.5 117.5t42 166.5q0 60 -18.5 114t-53.5 96l-462 -462
q43 -36 97 -55.5t115 -19.5q91 0 164.5 43z" />
    <glyph glyph-name="Oslashacute" unicode="&#x1fe;" horiz-adv-x="884" 
d="M836.5 534q23.5 -67 23.5 -143q0 -114 -51.5 -205.5t-143 -143.5t-204.5 -52q-79 0 -148 26t-122 73l-81 -81q-8 -8 -21 -8q-14 0 -22.5 9t-8.5 22q0 12 8 20l82 82q-41 53 -63.5 118.5t-22.5 139.5q0 114 51.5 205t142.5 143t205 52q77 0 145 -24.5t120 -70.5l78 77
q8 8 21 8t22.5 -9t9.5 -21q0 -11 -9 -20l-79 -79q44 -51 67.5 -118zM295.5 674q-73.5 -43 -115.5 -117.5t-42 -165.5q0 -119 69 -207l461 461q-42 34 -95 53t-112 19q-92 0 -165.5 -43zM625.5 107q73.5 43 115.5 117.5t42 166.5q0 60 -18.5 114t-53.5 96l-462 -462
q43 -36 97 -55.5t115 -19.5q91 0 164.5 43zM426 875.5q-11 11.5 -11 27.5t9 26l113 113q11 11 27 11q17 0 28 -11.5t11 -28.5q0 -16 -11 -26l-112 -113q-10 -10 -26 -10q-17 0 -28 11.5z" />
    <glyph glyph-name="Otilde" unicode="&#xd5;" horiz-adv-x="921" 
d="M256 42q-91 52 -142.5 143.5t-51.5 205.5t51.5 205t142.5 143t205 52q113 0 204.5 -52t143 -143t51.5 -205t-51.5 -205.5t-143 -143.5t-204.5 -52q-114 0 -205 52zM625.5 107q73.5 43 115.5 117.5t42 166.5q0 91 -42 165.5t-115.5 117.5t-164.5 43q-92 0 -165.5 -43
t-115.5 -117.5t-42 -165.5q0 -92 42 -166.5t115.5 -117.5t165.5 -43q91 0 164.5 43zM516 870q-22 9 -47 24q-21 13 -34 18t-26 5q-37 0 -66 -35q-6 -9 -15 -14t-18 -5t-17 5q-7 4 -11.5 11.5t-4.5 15.5q0 12 7 22q25 32 58 49.5t69 17.5q27 0 47 -8t46 -24q23 -14 34.5 -19
t26.5 -5q31 0 49 20q15 17 31 17q8 0 16 -5q18 -9 18 -28q0 -11 -8 -22q-40 -49 -105 -49q-28 0 -50 9z" />
    <glyph glyph-name="uni022C" unicode="&#x22c;" horiz-adv-x="921" 
d="M256 42q-91 52 -142.5 143.5t-51.5 205.5t51.5 205t142.5 143t205 52q113 0 204.5 -52t143 -143t51.5 -205t-51.5 -205.5t-143 -143.5t-204.5 -52q-114 0 -205 52zM625.5 107q73.5 43 115.5 117.5t42 166.5q0 91 -42 165.5t-115.5 117.5t-164.5 43q-92 0 -165.5 -43
t-115.5 -117.5t-42 -165.5q0 -92 42 -166.5t115.5 -117.5t165.5 -43q91 0 164.5 43zM516 870q-22 9 -47 24q-21 13 -34 18t-26 5q-37 0 -66 -35q-6 -9 -15 -14t-18 -5t-17 5q-7 4 -11.5 11.5t-4.5 15.5q0 12 7 22q25 32 58 49.5t69 17.5q27 0 47 -8t46 -24q23 -14 34.5 -19
t26.5 -5q31 0 49 20q15 17 31 17q8 0 16 -5q18 -9 18 -28q0 -11 -8 -22q-40 -49 -105 -49q-28 0 -50 9zM313 1060q-11 10 -11 26t11 26t28 10h259q16 0 27.5 -10t11.5 -26t-11.5 -26t-27.5 -10h-259q-17 0 -28 10z" />
    <glyph glyph-name="OE" unicode="&#x152;" horiz-adv-x="1153" 
d="M1097 64.5q11 -10.5 11 -26.5t-11 -27t-28 -11h-433h-6l-63 -4q-66 -6 -106 -6q-114 0 -205 52t-142.5 143.5t-51.5 205.5t51.5 205t142.5 143t205 52q22 0 107 -5q50 -5 86 -5h415q17 0 28 -11t11 -27t-11 -26.5t-28 -10.5h-394v-276h277q17 0 28 -11t11 -27t-11.5 -27
t-27.5 -11h-277v-279h394q17 0 28 -10.5zM180 224.5q42 -74.5 115.5 -117.5t165.5 -43q72 0 136 11v631q-63 11 -136 11q-92 0 -165.5 -43t-115.5 -117.5t-42 -165.5q0 -92 42 -166.5z" />
    <glyph glyph-name="P" unicode="P" horiz-adv-x="612" 
d="M111 11q-11 11 -11 28v703q0 17 11 28t28 11h200q73 0 130.5 -32.5t89.5 -90t32 -131.5q0 -73 -32 -130t-89.5 -89t-130.5 -32h-161v-237q0 -17 -11 -28t-28 -11t-28 11zM339 351q51 0 91 22.5t62.5 62.5t22.5 91q0 52 -22.5 92.5t-62.5 63.5t-91 23h-161v-355h161z" />
    <glyph glyph-name="Thorn" unicode="&#xde;" horiz-adv-x="612" 
d="M469.5 615q57.5 -29 89.5 -81.5t32 -120.5q0 -67 -32 -118.5t-89.5 -80.5t-130.5 -29h-161v-146q0 -17 -11 -28t-28 -11t-28 11t-11 28v703q0 17 11.5 28t27.5 11q17 0 28 -11t11 -28v-98h161q73 0 130.5 -29zM430 274q40 21 62.5 57.5t22.5 81.5q0 46 -22.5 83
t-62.5 58.5t-91 21.5h-161v-323h161q51 0 91 21z" />
    <glyph glyph-name="Q" unicode="Q" horiz-adv-x="921" 
d="M809 65q11 -11 11 -26q0 -16 -11 -27q-12 -12 -27 -12t-27 12l-53 53q-50 -36 -111.5 -55.5t-129.5 -19.5q-114 0 -205 52t-142.5 143.5t-51.5 205.5t51.5 205t142.5 143t205 52q113 0 204.5 -52t143 -143t51.5 -205q0 -81 -26.5 -151.5t-75.5 -123.5zM646 120l-107 107
q-12 12 -12 27t12 27q11 11 26 11q16 0 27 -11l111 -111q38 44 59 101t21 120q0 91 -42 165.5t-115.5 117.5t-164.5 43q-92 0 -165.5 -43t-115.5 -117.5t-42 -165.5q0 -92 42 -166.5t115.5 -117.5t165.5 -43q106 0 185 56z" />
    <glyph glyph-name="R" unicode="R" horiz-adv-x="618" 
d="M597 33q0 -15 -11 -24t-29 -9q-12 0 -20 5t-14 15l-180 286h-17h-148v-267q0 -17 -11 -28t-28 -11t-28 11t-11 28v703q0 17 11 28t28 11h187q73 0 130 -30.5t89.5 -85.5t32.5 -125q0 -77 -41.5 -135t-112.5 -83l164 -262q9 -15 9 -27zM326 381q50 0 90.5 20.5t63 56.5
t22.5 82q0 48 -22.5 86t-62.5 59t-91 21h-148v-325h148z" />
    <glyph glyph-name="Racute" unicode="&#x154;" horiz-adv-x="618" 
d="M597 33q0 -15 -11 -24t-29 -9q-12 0 -20 5t-14 15l-180 286h-17h-148v-267q0 -17 -11 -28t-28 -11t-28 11t-11 28v703q0 17 11 28t28 11h187q73 0 130 -30.5t89.5 -85.5t32.5 -125q0 -77 -41.5 -135t-112.5 -83l164 -262q9 -15 9 -27zM326 381q50 0 90.5 20.5t63 56.5
t22.5 82q0 48 -22.5 86t-62.5 59t-91 21h-148v-325h148zM287 875.5q-11 11.5 -11 27.5t9 26l113 113q11 11 27 11q17 0 28 -11.5t11 -28.5q0 -16 -11 -26l-112 -113q-10 -10 -26 -10q-17 0 -28 11.5z" />
    <glyph glyph-name="Rcaron" unicode="&#x158;" horiz-adv-x="618" 
d="M597 33q0 -15 -11 -24t-29 -9q-12 0 -20 5t-14 15l-180 286h-17h-148v-267q0 -17 -11 -28t-28 -11t-28 11t-11 28v703q0 17 11 28t28 11h187q73 0 130 -30.5t89.5 -85.5t32.5 -125q0 -77 -41.5 -135t-112.5 -83l164 -262q9 -15 9 -27zM326 381q50 0 90.5 20.5t63 56.5
t22.5 82q0 48 -22.5 86t-62.5 59t-91 21h-148v-325h148zM303 878l-118 78q-19 13 -19 33q0 13 8.5 21t22.5 8q15 0 32 -11l93 -63l93 62q17 12 33 12q14 0 22 -8.5t8 -20.5q0 -20 -19 -33l-117 -78q-7 -5 -20 -5t-19 5z" />
    <glyph glyph-name="Rcommaaccent" unicode="&#x156;" horiz-adv-x="618" 
d="M597 33q0 -15 -11 -24t-29 -9q-12 0 -20 5t-14 15l-180 286h-17h-148v-267q0 -17 -11 -28t-28 -11t-28 11t-11 28v703q0 17 11 28t28 11h187q73 0 130 -30.5t89.5 -85.5t32.5 -125q0 -77 -41.5 -135t-112.5 -83l164 -262q9 -15 9 -27zM326 381q50 0 90.5 20.5t63 56.5
t22.5 82q0 48 -22.5 86t-62.5 59t-91 21h-148v-325h148zM245.5 -218q-38.5 20 -38.5 51q0 13 8 20.5t21 7.5q11 0 19 -4t19 -13q12 -11 25 -17.5t34 -6.5q58 0 58 43q0 19 -17 30t-52 11q-21 0 -33 7t-12 20q0 14 12 22t35 8q55 0 90.5 -27.5t35.5 -70.5q0 -46 -35 -73.5
t-87 -27.5q-44 0 -82.5 20z" />
    <glyph glyph-name="uni0210" unicode="&#x210;" horiz-adv-x="618" 
d="M597 33q0 -15 -11 -24t-29 -9q-12 0 -20 5t-14 15l-180 286h-17h-148v-267q0 -17 -11 -28t-28 -11t-28 11t-11 28v703q0 17 11 28t28 11h187q73 0 130 -30.5t89.5 -85.5t32.5 -125q0 -77 -41.5 -135t-112.5 -83l164 -262q9 -15 9 -27zM326 381q50 0 90.5 20.5t63 56.5
t22.5 82q0 48 -22.5 86t-62.5 59t-91 21h-148v-325h148zM250 877l-61 129q-3 8 -3 14q0 16 11 27.5t28 11.5q12 0 22 -7t13 -17l44 -136q2 -8 2 -12q0 -13 -8.5 -21t-19.5 -8q-19 0 -28 19zM401 877l-61 129q-3 8 -3 14q0 16 11.5 27.5t28.5 11.5q12 0 22 -7t14 -17l42 -136
q2 -4 2 -12q0 -13 -8.5 -21t-19.5 -8q-19 0 -28 19z" />
    <glyph glyph-name="uni0212" unicode="&#x212;" horiz-adv-x="618" 
d="M597 33q0 -15 -11 -24t-29 -9q-12 0 -20 5t-14 15l-180 286h-17h-148v-267q0 -17 -11 -28t-28 -11t-28 11t-11 28v703q0 17 11 28t28 11h187q73 0 130 -30.5t89.5 -85.5t32.5 -125q0 -77 -41.5 -135t-112.5 -83l164 -262q9 -15 9 -27zM326 381q50 0 90.5 20.5t63 56.5
t22.5 82q0 48 -22.5 86t-62.5 59t-91 21h-148v-325h148zM430.5 987q45.5 -33 47.5 -84q0 -16 -10.5 -27.5t-26.5 -11.5t-27 10t-11 26q0 24 -22.5 39.5t-59.5 15.5q-35 0 -58 -16t-23 -39q0 -15 -11 -25.5t-26 -10.5q-16 0 -27 11.5t-11 28.5q0 32 21 58.5t57 42t78 15.5
q64 0 109.5 -33z" />
    <glyph glyph-name="S" unicode="S" horiz-adv-x="662" 
d="M171.5 30.5q-73.5 40.5 -105.5 109.5q-4 7 -4 16q0 14 10.5 23.5t28.5 9.5q12 0 22.5 -6.5t15.5 -18.5q23 -45 76.5 -72.5t124.5 -27.5q82 0 132 39.5t50 110.5q0 63 -46.5 106t-139.5 55q-116 14 -182.5 72.5t-66.5 143.5q0 60 32.5 105.5t90 70t130.5 24.5
q79 0 139 -35t94 -91q7 -11 7 -24q0 -19 -18 -30q-8 -4 -18 -4q-11 0 -20.5 5.5t-15.5 15.5q-56 88 -169 89q-81 0 -128 -34t-47 -97q0 -117 189 -142q124 -18 185 -76t61 -153q0 -70 -34 -121t-93 -77.5t-132 -26.5q-95 0 -168.5 40.5z" />
    <glyph glyph-name="Sacute" unicode="&#x15a;" horiz-adv-x="662" 
d="M171.5 30.5q-73.5 40.5 -105.5 109.5q-4 7 -4 16q0 14 10.5 23.5t28.5 9.5q12 0 22.5 -6.5t15.5 -18.5q23 -45 76.5 -72.5t124.5 -27.5q82 0 132 39.5t50 110.5q0 63 -46.5 106t-139.5 55q-116 14 -182.5 72.5t-66.5 143.5q0 60 32.5 105.5t90 70t130.5 24.5
q79 0 139 -35t94 -91q7 -11 7 -24q0 -19 -18 -30q-8 -4 -18 -4q-11 0 -20.5 5.5t-15.5 15.5q-56 88 -169 89q-81 0 -128 -34t-47 -97q0 -117 189 -142q124 -18 185 -76t61 -153q0 -70 -34 -121t-93 -77.5t-132 -26.5q-95 0 -168.5 40.5zM296 875.5q-11 11.5 -11 27.5t9 26
l113 113q11 11 27 11q17 0 28 -11.5t11 -28.5q0 -16 -11 -26l-112 -113q-10 -10 -26 -10q-17 0 -28 11.5z" />
    <glyph glyph-name="Scaron" unicode="&#x160;" horiz-adv-x="662" 
d="M171.5 30.5q-73.5 40.5 -105.5 109.5q-4 7 -4 16q0 14 10.5 23.5t28.5 9.5q12 0 22.5 -6.5t15.5 -18.5q23 -45 76.5 -72.5t124.5 -27.5q82 0 132 39.5t50 110.5q0 63 -46.5 106t-139.5 55q-116 14 -182.5 72.5t-66.5 143.5q0 60 32.5 105.5t90 70t130.5 24.5
q79 0 139 -35t94 -91q7 -11 7 -24q0 -19 -18 -30q-8 -4 -18 -4q-11 0 -20.5 5.5t-15.5 15.5q-56 88 -169 89q-81 0 -128 -34t-47 -97q0 -117 189 -142q124 -18 185 -76t61 -153q0 -70 -34 -121t-93 -77.5t-132 -26.5q-95 0 -168.5 40.5zM312 878l-118 78q-19 13 -19 33
q0 13 8.5 21t22.5 8q15 0 32 -11l93 -63l93 62q17 12 33 12q14 0 22 -8.5t8 -20.5q0 -20 -19 -33l-117 -78q-7 -5 -20 -5t-19 5z" />
    <glyph glyph-name="Scedilla" unicode="&#x15e;" horiz-adv-x="662" 
d="M539 62.5q-60 -58.5 -156 -70.5l-12 -28q50 -13 71.5 -36t21.5 -57q0 -28 -18 -52t-49 -38t-69 -14q-52 0 -87 22t-35 52q0 15 11 26t26 11q19 0 35 -21q16 -24 51 -24q23 0 38 10t15 28q0 19 -12 30t-40 18q-19 4 -29 11.5t-10 20.5q0 8 5 23l7 18q-83 7 -145.5 46.5
t-91.5 101.5q-4 7 -4 16q0 14 10.5 23.5t28.5 9.5q12 0 22.5 -6.5t15.5 -18.5q23 -45 76.5 -72.5t124.5 -27.5q82 0 132 39.5t50 110.5q0 63 -46.5 106t-139.5 55q-116 14 -182.5 72.5t-66.5 143.5q0 60 32.5 105.5t90 70t130.5 24.5q79 0 139 -35t94 -91q7 -11 7 -24
q0 -19 -18 -30q-8 -4 -18 -4q-11 0 -20.5 5.5t-15.5 15.5q-56 88 -169 89q-81 0 -128 -34t-47 -97q0 -117 189 -142q124 -18 185 -76t61 -153q0 -94 -60 -152.5z" />
    <glyph glyph-name="Scircumflex" unicode="&#x15c;" horiz-adv-x="662" 
d="M171.5 30.5q-73.5 40.5 -105.5 109.5q-4 7 -4 16q0 14 10.5 23.5t28.5 9.5q12 0 22.5 -6.5t15.5 -18.5q23 -45 76.5 -72.5t124.5 -27.5q82 0 132 39.5t50 110.5q0 63 -46.5 106t-139.5 55q-116 14 -182.5 72.5t-66.5 143.5q0 60 32.5 105.5t90 70t130.5 24.5
q79 0 139 -35t94 -91q7 -11 7 -24q0 -19 -18 -30q-8 -4 -18 -4q-11 0 -20.5 5.5t-15.5 15.5q-56 88 -169 89q-81 0 -128 -34t-47 -97q0 -117 189 -142q124 -18 185 -76t61 -153q0 -70 -34 -121t-93 -77.5t-132 -26.5q-95 0 -168.5 40.5zM186.5 877.5q-11.5 9.5 -11.5 25.5
q0 21 19 34l118 78q8 5 19 5q10 0 20 -5l117 -78q19 -13 19 -34q0 -15 -11 -25t-28 -10q-11 0 -24 8l-93 64l-93 -64q-11 -8 -23 -8q-17 0 -28.5 9.5z" />
    <glyph glyph-name="Scommaaccent" unicode="&#x218;" horiz-adv-x="662" 
d="M171.5 30.5q-73.5 40.5 -105.5 109.5q-4 7 -4 16q0 14 10.5 23.5t28.5 9.5q12 0 22.5 -6.5t15.5 -18.5q23 -45 76.5 -72.5t124.5 -27.5q82 0 132 39.5t50 110.5q0 63 -46.5 106t-139.5 55q-116 14 -182.5 72.5t-66.5 143.5q0 60 32.5 105.5t90 70t130.5 24.5
q79 0 139 -35t94 -91q7 -11 7 -24q0 -19 -18 -30q-8 -4 -18 -4q-11 0 -20.5 5.5t-15.5 15.5q-56 88 -169 89q-81 0 -128 -34t-47 -97q0 -117 189 -142q124 -18 185 -76t61 -153q0 -70 -34 -121t-93 -77.5t-132 -26.5q-95 0 -168.5 40.5zM254.5 -218q-38.5 20 -38.5 51
q0 13 8 20.5t21 7.5q11 0 19 -4t19 -13q12 -11 25 -17.5t34 -6.5q58 0 58 43q0 19 -17 30t-52 11q-21 0 -33 7t-12 20q0 14 12 22t35 8q55 0 90.5 -27.5t35.5 -70.5q0 -46 -35 -73.5t-87 -27.5q-44 0 -82.5 20z" />
    <glyph glyph-name="uni1E9E" unicode="&#x1e9e;" horiz-adv-x="695" 
d="M536 436.5q49 -30.5 76.5 -82.5t27.5 -117q0 -68 -31.5 -123t-86.5 -86.5t-123 -31.5q-69 0 -123 29q-11 7 -15.5 14.5t-4.5 22.5q0 14 10 23.5t25 9.5q9 0 16 -3q28 -12 46 -16.5t46 -4.5q47 0 84.5 21t58.5 59t21 86q0 72 -44.5 116.5t-119.5 44.5h-42
q-15 0 -25.5 10.5t-10.5 26.5q0 18 12 28l163 182q-23 29 -63.5 46.5t-86.5 17.5q-76 0 -122 -46t-46 -130v-498q0 -15 -11 -25t-29 -10q-19 0 -28.5 10t-9.5 25v511q0 74 32 127t88 80.5t127 27.5q50 0 96.5 -17t78.5 -44t41 -57q2 -12 2 -17q0 -24 -21 -47l-120 -128
q63 -4 112 -34.5z" />
    <glyph glyph-name="uni018F" unicode="&#x18f;" horiz-adv-x="838" 
d="M586.5 739q89.5 -52 140 -144t50.5 -208q0 -114 -46 -204.5t-127 -141.5t-183 -51q-106 0 -187.5 50t-126.5 138.5t-45 199.5q0 22 14.5 35.5t37.5 13.5h585q-8 85 -51 151t-112 102.5t-155 36.5q-54 0 -103 -16t-90 -46q-12 -9 -26 -9q-16 0 -26 11q-9 11 -9 24
q0 16 11 25q48 40 110.5 62.5t136.5 22.5q112 0 201.5 -52zM558.5 102q61.5 38 99 105t42.5 151h-562q3 -84 40.5 -151t101 -105t141.5 -38q76 0 137.5 38z" />
    <glyph glyph-name="T" unicode="T" horiz-adv-x="655" 
d="M630 771q10 -10 10 -26q0 -15 -10 -25t-26 -10h-238v-671q0 -16 -11 -27.5t-28 -11.5q-16 0 -27.5 11.5t-11.5 27.5v671h-237q-16 0 -26 10t-10 25q0 16 10 26t26 10h553q16 0 26 -10z" />
    <glyph glyph-name="Tbar" unicode="&#x166;" horiz-adv-x="655" 
d="M630 771q10 -10 10 -26q0 -15 -10 -25t-26 -10h-238v-285h124q16 0 26.5 -9.5t10.5 -24.5t-10.5 -24.5t-26.5 -9.5h-124v-318q0 -16 -11 -27.5t-28 -11.5q-16 0 -27.5 11.5t-11.5 27.5v318h-118q-17 0 -27 9t-10 25t10 25t27 9h118v285h-237q-16 0 -26 10t-10 25
q0 16 10 26t26 10h553q16 0 26 -10z" />
    <glyph glyph-name="Tcaron" unicode="&#x164;" horiz-adv-x="655" 
d="M630 771q10 -10 10 -26q0 -15 -10 -25t-26 -10h-238v-671q0 -16 -11 -27.5t-28 -11.5q-16 0 -27.5 11.5t-11.5 27.5v671h-237q-16 0 -26 10t-10 25q0 16 10 26t26 10h553q16 0 26 -10zM308 878l-118 78q-19 13 -19 33q0 13 8.5 21t22.5 8q15 0 32 -11l93 -63l93 62
q17 12 33 12q14 0 22 -8.5t8 -20.5q0 -20 -19 -33l-117 -78q-7 -5 -20 -5t-19 5z" />
    <glyph glyph-name="uni0162" unicode="&#x162;" horiz-adv-x="655" 
d="M630 771q10 -10 10 -26q0 -15 -10 -25t-26 -10h-238v-667q9 -4 14 -11.5t5 -16.5q0 -7 -3 -15l-15 -36q50 -13 71.5 -36t21.5 -57q0 -28 -18 -52t-49 -38t-69 -14q-52 0 -87 22t-35 52q0 15 11 26t26 11q19 0 35 -21q16 -24 51 -24q23 0 38 10t15 28q0 19 -12 30t-40 18
q-19 4 -29 11.5t-10 20.5q0 8 5 23l13 33q-17 12 -17 32v671h-237q-16 0 -26 10t-10 25q0 16 10 26t26 10h553q16 0 26 -10z" />
    <glyph glyph-name="uni021A" unicode="&#x21a;" horiz-adv-x="655" 
d="M630 771q10 -10 10 -26q0 -15 -10 -25t-26 -10h-238v-671q0 -16 -11 -27.5t-28 -11.5q-16 0 -27.5 11.5t-11.5 27.5v671h-237q-16 0 -26 10t-10 25q0 16 10 26t26 10h553q16 0 26 -10zM250.5 -218q-38.5 20 -38.5 51q0 13 8 20.5t21 7.5q11 0 19 -4t19 -13
q12 -11 25 -17.5t34 -6.5q58 0 58 43q0 19 -17 30t-52 11q-21 0 -33 7t-12 20q0 14 12 22t35 8q55 0 90.5 -27.5t35.5 -70.5q0 -46 -35 -73.5t-87 -27.5q-44 0 -82.5 20z" />
    <glyph glyph-name="U" unicode="U" horiz-adv-x="819" 
d="M250 19q-71 35 -110.5 97.5t-39.5 141.5v484q0 17 11 28t28 11t28 -11t11 -28v-484q0 -58 29.5 -103.5t82.5 -71t121 -25.5q67 0 119 25.5t81.5 71t29.5 103.5v484q0 17 11 28t28 11t28 -11t11 -28v-484q0 -79 -39.5 -141.5t-109.5 -97.5t-159 -35q-90 0 -161 35z" />
    <glyph glyph-name="Uacute" unicode="&#xda;" horiz-adv-x="819" 
d="M250 19q-71 35 -110.5 97.5t-39.5 141.5v484q0 17 11 28t28 11t28 -11t11 -28v-484q0 -58 29.5 -103.5t82.5 -71t121 -25.5q67 0 119 25.5t81.5 71t29.5 103.5v484q0 17 11 28t28 11t28 -11t11 -28v-484q0 -79 -39.5 -141.5t-109.5 -97.5t-159 -35q-90 0 -161 35z
M375 875.5q-11 11.5 -11 27.5t9 26l113 113q11 11 27 11q17 0 28 -11.5t11 -28.5q0 -16 -11 -26l-112 -113q-10 -10 -26 -10q-17 0 -28 11.5z" />
    <glyph glyph-name="Ubreve" unicode="&#x16c;" horiz-adv-x="819" 
d="M250 19q-71 35 -110.5 97.5t-39.5 141.5v484q0 17 11 28t28 11t28 -11t11 -28v-484q0 -58 29.5 -103.5t82.5 -71t121 -25.5q67 0 119 25.5t81.5 71t29.5 103.5v484q0 17 11 28t28 11t28 -11t11 -28v-484q0 -79 -39.5 -141.5t-109.5 -97.5t-159 -35q-90 0 -161 35z
M331 880.5q-36 15.5 -57 42t-21 58.5q0 17 11 28.5t27 11.5q15 0 26 -10.5t11 -25.5q0 -23 23 -39t58 -16q37 0 59.5 15.5t22.5 39.5q0 16 11 26t27 10t26.5 -11.5t10.5 -27.5q-2 -51 -47.5 -84t-109.5 -33q-42 0 -78 15.5z" />
    <glyph glyph-name="Ucircumflex" unicode="&#xdb;" horiz-adv-x="819" 
d="M250 19q-71 35 -110.5 97.5t-39.5 141.5v484q0 17 11 28t28 11t28 -11t11 -28v-484q0 -58 29.5 -103.5t82.5 -71t121 -25.5q67 0 119 25.5t81.5 71t29.5 103.5v484q0 17 11 28t28 11t28 -11t11 -28v-484q0 -79 -39.5 -141.5t-109.5 -97.5t-159 -35q-90 0 -161 35z
M265.5 877.5q-11.5 9.5 -11.5 25.5q0 21 19 34l118 78q8 5 19 5q10 0 20 -5l117 -78q19 -13 19 -34q0 -15 -11 -25t-28 -10q-11 0 -24 8l-93 64l-93 -64q-11 -8 -23 -8q-17 0 -28.5 9.5z" />
    <glyph glyph-name="uni0214" unicode="&#x214;" horiz-adv-x="819" 
d="M250 19q-71 35 -110.5 97.5t-39.5 141.5v484q0 17 11 28t28 11t28 -11t11 -28v-484q0 -58 29.5 -103.5t82.5 -71t121 -25.5q67 0 119 25.5t81.5 71t29.5 103.5v484q0 17 11 28t28 11t28 -11t11 -28v-484q0 -79 -39.5 -141.5t-109.5 -97.5t-159 -35q-90 0 -161 35z
M338 877l-61 129q-3 8 -3 14q0 16 11 27.5t28 11.5q12 0 22 -7t13 -17l44 -136q2 -8 2 -12q0 -13 -8.5 -21t-19.5 -8q-19 0 -28 19zM489 877l-61 129q-3 8 -3 14q0 16 11.5 27.5t28.5 11.5q12 0 22 -7t14 -17l42 -136q2 -4 2 -12q0 -13 -8.5 -21t-19.5 -8q-19 0 -28 19z" />
    <glyph glyph-name="Udieresis" unicode="&#xdc;" horiz-adv-x="819" 
d="M250 19q-71 35 -110.5 97.5t-39.5 141.5v484q0 17 11 28t28 11t28 -11t11 -28v-484q0 -58 29.5 -103.5t82.5 -71t121 -25.5q67 0 119 25.5t81.5 71t29.5 103.5v484q0 17 11 28t28 11t28 -11t11 -28v-484q0 -79 -39.5 -141.5t-109.5 -97.5t-159 -35q-90 0 -161 35z
M267 897q-16 16 -16 39t16 39t39 16t39 -16t16 -39t-16 -39t-39 -16t-39 16zM476 897q-16 16 -16 39t16 39t39 16t39 -16t16 -39t-16 -39t-39 -16t-39 16z" />
    <glyph glyph-name="uni1EE4" unicode="&#x1ee4;" horiz-adv-x="819" 
d="M250 19q-71 35 -110.5 97.5t-39.5 141.5v484q0 17 11 28t28 11t28 -11t11 -28v-484q0 -58 29.5 -103.5t82.5 -71t121 -25.5q67 0 119 25.5t81.5 71t29.5 103.5v484q0 17 11 28t28 11t28 -11t11 -28v-484q0 -79 -39.5 -141.5t-109.5 -97.5t-159 -35q-90 0 -161 35z
M370.5 -193q-15.5 16 -15.5 39q0 24 16 39t39 15q22 0 38 -15t16 -39q0 -23 -16 -39t-39 -16t-38.5 16z" />
    <glyph glyph-name="Ugrave" unicode="&#xd9;" horiz-adv-x="819" 
d="M250 19q-71 35 -110.5 97.5t-39.5 141.5v484q0 17 11 28t28 11t28 -11t11 -28v-484q0 -58 29.5 -103.5t82.5 -71t121 -25.5q67 0 119 25.5t81.5 71t29.5 103.5v484q0 17 11 28t28 11t28 -11t11 -28v-484q0 -79 -39.5 -141.5t-109.5 -97.5t-159 -35q-90 0 -161 35z
M383 881l-113 112q-10 10 -10 27t11 28.5t27 11.5t28 -12l112 -113q10 -9 10 -25q0 -17 -11 -28.5t-28 -11.5q-15 0 -26 11z" />
    <glyph glyph-name="uni1EE6" unicode="&#x1ee6;" horiz-adv-x="819" 
d="M250 19q-71 35 -110.5 97.5t-39.5 141.5v484q0 17 11 28t28 11t28 -11t11 -28v-484q0 -58 29.5 -103.5t82.5 -71t121 -25.5q67 0 119 25.5t81.5 71t29.5 103.5v484q0 17 11 28t28 11t28 -11t11 -28v-484q0 -79 -39.5 -141.5t-109.5 -97.5t-159 -35q-90 0 -161 35z
M383.5 842.5q-10.5 10.5 -10.5 25.5v28q0 32 32 39l25 5q41 10 41 44q0 22 -14 34t-36 12q-23 0 -44 -16q-9 -9 -25 -9q-13 0 -22.5 9t-9.5 23q0 17 12 27q39 31 88 31q51 0 84 -29.5t33 -76.5q0 -44 -28 -68.5t-73 -31.5l8 -13q0 -20 -10 -32t-25 -12t-25.5 10.5z" />
    <glyph glyph-name="Uhorn" unicode="&#x1af;" horiz-adv-x="819" 
d="M828.5 882.5q9.5 -12.5 9.5 -31.5v-15q0 -54 -32.5 -90t-81.5 -36h-5v-452q0 -79 -39.5 -141.5t-109.5 -97.5t-159 -35q-90 0 -161 35t-110.5 97.5t-39.5 141.5v484q0 17 11 28t28 11t28 -11t11 -28v-484q0 -58 29.5 -103.5t82.5 -71t121 -25.5q67 0 119 25.5t81.5 71
t29.5 103.5v484q0 17 11 28t28 11h44q18 0 30.5 15.5t12.5 39.5v21q0 17 9.5 27.5t25.5 10.5q17 0 26.5 -12.5z" />
    <glyph glyph-name="uni1EE8" unicode="&#x1ee8;" horiz-adv-x="819" 
d="M828.5 882.5q9.5 -12.5 9.5 -31.5v-15q0 -54 -32.5 -90t-81.5 -36h-5v-452q0 -79 -39.5 -141.5t-109.5 -97.5t-159 -35q-90 0 -161 35t-110.5 97.5t-39.5 141.5v484q0 17 11 28t28 11t28 -11t11 -28v-484q0 -58 29.5 -103.5t82.5 -71t121 -25.5q67 0 119 25.5t81.5 71
t29.5 103.5v484q0 17 11 28t28 11h44q18 0 30.5 15.5t12.5 39.5v21q0 17 9.5 27.5t25.5 10.5q17 0 26.5 -12.5zM375 875.5q-11 11.5 -11 27.5t9 26l113 113q11 11 27 11q17 0 28 -11.5t11 -28.5q0 -16 -11 -26l-112 -113q-10 -10 -26 -10q-17 0 -28 11.5z" />
    <glyph glyph-name="uni1EF0" unicode="&#x1ef0;" horiz-adv-x="819" 
d="M828.5 882.5q9.5 -12.5 9.5 -31.5v-15q0 -54 -32.5 -90t-81.5 -36h-5v-452q0 -79 -39.5 -141.5t-109.5 -97.5t-159 -35q-90 0 -161 35t-110.5 97.5t-39.5 141.5v484q0 17 11 28t28 11t28 -11t11 -28v-484q0 -58 29.5 -103.5t82.5 -71t121 -25.5q67 0 119 25.5t81.5 71
t29.5 103.5v484q0 17 11 28t28 11h44q18 0 30.5 15.5t12.5 39.5v21q0 17 9.5 27.5t25.5 10.5q17 0 26.5 -12.5zM370.5 -193q-15.5 16 -15.5 39q0 24 16 39t39 15q22 0 38 -15t16 -39q0 -23 -16 -39t-39 -16t-38.5 16z" />
    <glyph glyph-name="uni1EEA" unicode="&#x1eea;" horiz-adv-x="819" 
d="M828.5 882.5q9.5 -12.5 9.5 -31.5v-15q0 -54 -32.5 -90t-81.5 -36h-5v-452q0 -79 -39.5 -141.5t-109.5 -97.5t-159 -35q-90 0 -161 35t-110.5 97.5t-39.5 141.5v484q0 17 11 28t28 11t28 -11t11 -28v-484q0 -58 29.5 -103.5t82.5 -71t121 -25.5q67 0 119 25.5t81.5 71
t29.5 103.5v484q0 17 11 28t28 11h44q18 0 30.5 15.5t12.5 39.5v21q0 17 9.5 27.5t25.5 10.5q17 0 26.5 -12.5zM383 881l-113 112q-10 10 -10 27t11 28.5t27 11.5t28 -12l112 -113q10 -9 10 -25q0 -17 -11 -28.5t-28 -11.5q-15 0 -26 11z" />
    <glyph glyph-name="uni1EEC" unicode="&#x1eec;" horiz-adv-x="819" 
d="M828.5 882.5q9.5 -12.5 9.5 -31.5v-15q0 -54 -32.5 -90t-81.5 -36h-5v-452q0 -79 -39.5 -141.5t-109.5 -97.5t-159 -35q-90 0 -161 35t-110.5 97.5t-39.5 141.5v484q0 17 11 28t28 11t28 -11t11 -28v-484q0 -58 29.5 -103.5t82.5 -71t121 -25.5q67 0 119 25.5t81.5 71
t29.5 103.5v484q0 17 11 28t28 11h44q18 0 30.5 15.5t12.5 39.5v21q0 17 9.5 27.5t25.5 10.5q17 0 26.5 -12.5zM383.5 842.5q-10.5 10.5 -10.5 25.5v28q0 32 32 39l25 5q41 10 41 44q0 22 -14 34t-36 12q-23 0 -44 -16q-9 -9 -25 -9q-13 0 -22.5 9t-9.5 23q0 17 12 27
q39 31 88 31q51 0 84 -29.5t33 -76.5q0 -44 -28 -68.5t-73 -31.5l8 -13q0 -20 -10 -32t-25 -12t-25.5 10.5z" />
    <glyph glyph-name="uni1EEE" unicode="&#x1eee;" horiz-adv-x="819" 
d="M828.5 882.5q9.5 -12.5 9.5 -31.5v-15q0 -54 -32.5 -90t-81.5 -36h-5v-452q0 -79 -39.5 -141.5t-109.5 -97.5t-159 -35q-90 0 -161 35t-110.5 97.5t-39.5 141.5v484q0 17 11 28t28 11t28 -11t11 -28v-484q0 -58 29.5 -103.5t82.5 -71t121 -25.5q67 0 119 25.5t81.5 71
t29.5 103.5v484q0 17 11 28t28 11h44q18 0 30.5 15.5t12.5 39.5v21q0 17 9.5 27.5t25.5 10.5q17 0 26.5 -12.5zM465 870q-22 9 -47 24q-21 13 -34 18t-26 5q-37 0 -66 -35q-6 -9 -15 -14t-18 -5t-17 5q-7 4 -11.5 11.5t-4.5 15.5q0 12 7 22q25 32 58 49.5t69 17.5
q27 0 47 -8t46 -24q23 -14 34.5 -19t26.5 -5q31 0 49 20q15 17 31 17q8 0 16 -5q18 -9 18 -28q0 -11 -8 -22q-40 -49 -105 -49q-28 0 -50 9z" />
    <glyph glyph-name="Uhungarumlaut" unicode="&#x170;" horiz-adv-x="819" 
d="M250 19q-71 35 -110.5 97.5t-39.5 141.5v484q0 17 11 28t28 11t28 -11t11 -28v-484q0 -58 29.5 -103.5t82.5 -71t121 -25.5q67 0 119 25.5t81.5 71t29.5 103.5v484q0 17 11 28t28 11t28 -11t11 -28v-484q0 -79 -39.5 -141.5t-109.5 -97.5t-159 -35q-90 0 -161 35z
M312.5 866q-8.5 8 -8.5 21q0 8 2 12l42 136q4 11 14 17.5t22 6.5q17 0 28.5 -11.5t11.5 -27.5q0 -6 -3 -14l-61 -129q-10 -19 -28 -19q-11 0 -19.5 8zM463.5 866q-8.5 8 -8.5 21q0 4 2 12l44 136q3 10 13 17t22 7q17 0 28 -11.5t11 -27.5q0 -6 -3 -14l-61 -129
q-10 -19 -28 -19q-11 0 -19.5 8z" />
    <glyph glyph-name="uni0216" unicode="&#x216;" horiz-adv-x="819" 
d="M250 19q-71 35 -110.5 97.5t-39.5 141.5v484q0 17 11 28t28 11t28 -11t11 -28v-484q0 -58 29.5 -103.5t82.5 -71t121 -25.5q67 0 119 25.5t81.5 71t29.5 103.5v484q0 17 11 28t28 11t28 -11t11 -28v-484q0 -79 -39.5 -141.5t-109.5 -97.5t-159 -35q-90 0 -161 35z
M518.5 987q45.5 -33 47.5 -84q0 -16 -10.5 -27.5t-26.5 -11.5t-27 10t-11 26q0 24 -22.5 39.5t-59.5 15.5q-35 0 -58 -16t-23 -39q0 -15 -11 -25.5t-26 -10.5q-16 0 -27 11.5t-11 28.5q0 32 21 58.5t57 42t78 15.5q64 0 109.5 -33z" />
    <glyph glyph-name="Umacron" unicode="&#x16a;" horiz-adv-x="819" 
d="M250 19q-71 35 -110.5 97.5t-39.5 141.5v484q0 17 11 28t28 11t28 -11t11 -28v-484q0 -58 29.5 -103.5t82.5 -71t121 -25.5q67 0 119 25.5t81.5 71t29.5 103.5v484q0 17 11 28t28 11t28 -11t11 -28v-484q0 -79 -39.5 -141.5t-109.5 -97.5t-159 -35q-90 0 -161 35z
M252 900q-11 10 -11 26t11 26t28 10h259q16 0 27.5 -10t11.5 -26t-11.5 -26t-27.5 -10h-259q-17 0 -28 10z" />
    <glyph glyph-name="Uogonek" unicode="&#x172;" horiz-adv-x="819" 
d="M708 770q11 -11 11 -28v-484q0 -86 -46 -152t-126 -97q-7 -34 -61 -74q-16 -12 -16 -32q0 -17 11.5 -28t27.5 -11q12 0 21 6l34 25q11 8 23 8q17 0 28 -11.5t11 -27.5q0 -18 -13 -31l-40 -26q-30 -21 -64 -21q-48 0 -82.5 34.5t-34.5 82.5q0 45 33 81h-14q-90 0 -161 35
t-110.5 97.5t-39.5 141.5v484q0 17 11 28t28 11t28 -11t11 -28v-484q0 -58 29.5 -103.5t82.5 -71t121 -25.5q67 0 119 25.5t81.5 71t29.5 103.5v484q0 17 11 28t28 11t28 -11z" />
    <glyph glyph-name="Uring" unicode="&#x16e;" horiz-adv-x="819" 
d="M250 19q-71 35 -110.5 97.5t-39.5 141.5v484q0 17 11 28t28 11t28 -11t11 -28v-484q0 -58 29.5 -103.5t82.5 -71t121 -25.5q67 0 119 25.5t81.5 71t29.5 103.5v484q0 17 11 28t28 11t28 -11t11 -28v-484q0 -79 -39.5 -141.5t-109.5 -97.5t-159 -35q-90 0 -161 35z
M340.5 855q-28.5 28 -28.5 70t28.5 70t69.5 28q42 0 70 -28t28 -70t-28 -70t-70 -28q-41 0 -69.5 28zM447.5 887.5q15.5 15.5 15.5 37.5q0 23 -15.5 38t-37.5 15t-37 -15.5t-15 -37.5t15 -37.5t37 -15.5t37.5 15.5z" />
    <glyph glyph-name="Utilde" unicode="&#x168;" horiz-adv-x="819" 
d="M250 19q-71 35 -110.5 97.5t-39.5 141.5v484q0 17 11 28t28 11t28 -11t11 -28v-484q0 -58 29.5 -103.5t82.5 -71t121 -25.5q67 0 119 25.5t81.5 71t29.5 103.5v484q0 17 11 28t28 11t28 -11t11 -28v-484q0 -79 -39.5 -141.5t-109.5 -97.5t-159 -35q-90 0 -161 35z
M465 870q-22 9 -47 24q-21 13 -34 18t-26 5q-37 0 -66 -35q-6 -9 -15 -14t-18 -5t-17 5q-7 4 -11.5 11.5t-4.5 15.5q0 12 7 22q25 32 58 49.5t69 17.5q27 0 47 -8t46 -24q23 -14 34.5 -19t26.5 -5q31 0 49 20q15 17 31 17q8 0 16 -5q18 -9 18 -28q0 -11 -8 -22
q-40 -49 -105 -49q-28 0 -50 9z" />
    <glyph glyph-name="V" unicode="V" horiz-adv-x="716" 
d="M687.5 771q9.5 -10 9.5 -25q0 -10 -5 -22l-298 -699q-11 -25 -35 -25q-13 0 -21.5 5.5t-14.5 19.5l-297 695q-6 15 -6 26q0 16 10.5 25.5t27.5 9.5q26 0 36 -25l265 -634l264 632q6 15 15 21t24 6q16 0 25.5 -10z" />
    <glyph glyph-name="W" unicode="W" horiz-adv-x="938" 
d="M907 770.5q9 -10.5 9 -26.5q0 -8 -3 -19l-204 -692q-5 -16 -15.5 -24.5t-24.5 -8.5t-24.5 9t-14.5 23l-162 591l-161 -590q-5 -15 -15.5 -24t-24.5 -9t-24.5 9t-14.5 23l-205 693q-3 11 -3 18q0 17 10 27.5t26 10.5q28 0 38 -30l173 -603l164 586q3 11 13.5 18t23.5 7
t23 -7t14 -19l165 -586l174 608q8 26 38 26q16 0 25 -10.5z" />
    <glyph glyph-name="Wacute" unicode="&#x1e82;" horiz-adv-x="938" 
d="M907 770.5q9 -10.5 9 -26.5q0 -8 -3 -19l-204 -692q-5 -16 -15.5 -24.5t-24.5 -8.5t-24.5 9t-14.5 23l-162 591l-161 -590q-5 -15 -15.5 -24t-24.5 -9t-24.5 9t-14.5 23l-205 693q-3 11 -3 18q0 17 10 27.5t26 10.5q28 0 38 -30l173 -603l164 586q3 11 13.5 18t23.5 7
t23 -7t14 -19l165 -586l174 608q8 26 38 26q16 0 25 -10.5zM434 875.5q-11 11.5 -11 27.5t9 26l113 113q11 11 27 11q17 0 28 -11.5t11 -28.5q0 -16 -11 -26l-112 -113q-10 -10 -26 -10q-17 0 -28 11.5z" />
    <glyph glyph-name="Wcircumflex" unicode="&#x174;" horiz-adv-x="938" 
d="M907 770.5q9 -10.5 9 -26.5q0 -8 -3 -19l-204 -692q-5 -16 -15.5 -24.5t-24.5 -8.5t-24.5 9t-14.5 23l-162 591l-161 -590q-5 -15 -15.5 -24t-24.5 -9t-24.5 9t-14.5 23l-205 693q-3 11 -3 18q0 17 10 27.5t26 10.5q28 0 38 -30l173 -603l164 586q3 11 13.5 18t23.5 7
t23 -7t14 -19l165 -586l174 608q8 26 38 26q16 0 25 -10.5zM324.5 877.5q-11.5 9.5 -11.5 25.5q0 21 19 34l118 78q8 5 19 5q10 0 20 -5l117 -78q19 -13 19 -34q0 -15 -11 -25t-28 -10q-11 0 -24 8l-93 64l-93 -64q-11 -8 -23 -8q-17 0 -28.5 9.5z" />
    <glyph glyph-name="Wdieresis" unicode="&#x1e84;" horiz-adv-x="938" 
d="M907 770.5q9 -10.5 9 -26.5q0 -8 -3 -19l-204 -692q-5 -16 -15.5 -24.5t-24.5 -8.5t-24.5 9t-14.5 23l-162 591l-161 -590q-5 -15 -15.5 -24t-24.5 -9t-24.5 9t-14.5 23l-205 693q-3 11 -3 18q0 17 10 27.5t26 10.5q28 0 38 -30l173 -603l164 586q3 11 13.5 18t23.5 7
t23 -7t14 -19l165 -586l174 608q8 26 38 26q16 0 25 -10.5zM326 897q-16 16 -16 39t16 39t39 16t39 -16t16 -39t-16 -39t-39 -16t-39 16zM535 897q-16 16 -16 39t16 39t39 16t39 -16t16 -39t-16 -39t-39 -16t-39 16z" />
    <glyph glyph-name="Wgrave" unicode="&#x1e80;" horiz-adv-x="938" 
d="M907 770.5q9 -10.5 9 -26.5q0 -8 -3 -19l-204 -692q-5 -16 -15.5 -24.5t-24.5 -8.5t-24.5 9t-14.5 23l-162 591l-161 -590q-5 -15 -15.5 -24t-24.5 -9t-24.5 9t-14.5 23l-205 693q-3 11 -3 18q0 17 10 27.5t26 10.5q28 0 38 -30l173 -603l164 586q3 11 13.5 18t23.5 7
t23 -7t14 -19l165 -586l174 608q8 26 38 26q16 0 25 -10.5zM442 881l-113 112q-10 10 -10 27t11 28.5t27 11.5t28 -12l112 -113q10 -9 10 -25q0 -17 -11 -28.5t-28 -11.5q-15 0 -26 11z" />
    <glyph glyph-name="X" unicode="X" horiz-adv-x="707" 
d="M662 38q0 -16 -10 -27t-27 -11q-20 0 -30 14l-239 331l-244 -333q-10 -12 -28 -12q-17 0 -27 10.5t-10 25.5t9 27l247 336l-231 321q-8 13 -8 24q0 15 10 26t26 11q20 0 30 -14l227 -314l230 314q11 14 30 14q16 0 26 -11.5t10 -26.5q0 -13 -7 -23l-236 -320l243 -337
q9 -12 9 -25z" />
    <glyph glyph-name="Y" unicode="Y" horiz-adv-x="648" 
d="M633.5 770.5q9.5 -10.5 9.5 -25.5q0 -14 -7 -25l-273 -431v-250q0 -16 -11 -27.5t-28 -11.5q-16 0 -27.5 11.5t-11.5 27.5v250l-272 431q-8 13 -8 25q0 15 11 25.5t27 10.5q11 0 18.5 -4.5t14.5 -14.5l249 -401l248 399q8 11 16 16t20 5q15 0 24.5 -10.5z" />
    <glyph glyph-name="Yacute" unicode="&#xdd;" horiz-adv-x="648" 
d="M633.5 770.5q9.5 -10.5 9.5 -25.5q0 -14 -7 -25l-273 -431v-250q0 -16 -11 -27.5t-28 -11.5q-16 0 -27.5 11.5t-11.5 27.5v250l-272 431q-8 13 -8 25q0 15 11 25.5t27 10.5q11 0 18.5 -4.5t14.5 -14.5l249 -401l248 399q8 11 16 16t20 5q15 0 24.5 -10.5zM289 875.5
q-11 11.5 -11 27.5t9 26l113 113q11 11 27 11q17 0 28 -11.5t11 -28.5q0 -16 -11 -26l-112 -113q-10 -10 -26 -10q-17 0 -28 11.5z" />
    <glyph glyph-name="Ycircumflex" unicode="&#x176;" horiz-adv-x="648" 
d="M633.5 770.5q9.5 -10.5 9.5 -25.5q0 -14 -7 -25l-273 -431v-250q0 -16 -11 -27.5t-28 -11.5q-16 0 -27.5 11.5t-11.5 27.5v250l-272 431q-8 13 -8 25q0 15 11 25.5t27 10.5q11 0 18.5 -4.5t14.5 -14.5l249 -401l248 399q8 11 16 16t20 5q15 0 24.5 -10.5zM179.5 877.5
q-11.5 9.5 -11.5 25.5q0 21 19 34l118 78q8 5 19 5q10 0 20 -5l117 -78q19 -13 19 -34q0 -15 -11 -25t-28 -10q-11 0 -24 8l-93 64l-93 -64q-11 -8 -23 -8q-17 0 -28.5 9.5z" />
    <glyph glyph-name="Ydieresis" unicode="&#x178;" horiz-adv-x="648" 
d="M633.5 770.5q9.5 -10.5 9.5 -25.5q0 -14 -7 -25l-273 -431v-250q0 -16 -11 -27.5t-28 -11.5q-16 0 -27.5 11.5t-11.5 27.5v250l-272 431q-8 13 -8 25q0 15 11 25.5t27 10.5q11 0 18.5 -4.5t14.5 -14.5l249 -401l248 399q8 11 16 16t20 5q15 0 24.5 -10.5zM181 897
q-16 16 -16 39t16 39t39 16t39 -16t16 -39t-16 -39t-39 -16t-39 16zM390 897q-16 16 -16 39t16 39t39 16t39 -16t16 -39t-16 -39t-39 -16t-39 16z" />
    <glyph glyph-name="uni1EF4" unicode="&#x1ef4;" horiz-adv-x="648" 
d="M633.5 770.5q9.5 -10.5 9.5 -25.5q0 -14 -7 -25l-273 -431v-250q0 -16 -11 -27.5t-28 -11.5q-16 0 -27.5 11.5t-11.5 27.5v250l-272 431q-8 13 -8 25q0 15 11 25.5t27 10.5q11 0 18.5 -4.5t14.5 -14.5l249 -401l248 399q8 11 16 16t20 5q15 0 24.5 -10.5zM284.5 -193
q-15.5 16 -15.5 39q0 24 16 39t39 15q22 0 38 -15t16 -39q0 -23 -16 -39t-39 -16t-38.5 16z" />
    <glyph glyph-name="Ygrave" unicode="&#x1ef2;" horiz-adv-x="648" 
d="M633.5 770.5q9.5 -10.5 9.5 -25.5q0 -14 -7 -25l-273 -431v-250q0 -16 -11 -27.5t-28 -11.5q-16 0 -27.5 11.5t-11.5 27.5v250l-272 431q-8 13 -8 25q0 15 11 25.5t27 10.5q11 0 18.5 -4.5t14.5 -14.5l249 -401l248 399q8 11 16 16t20 5q15 0 24.5 -10.5zM297 881
l-113 112q-10 10 -10 27t11 28.5t27 11.5t28 -12l112 -113q10 -9 10 -25q0 -17 -11 -28.5t-28 -11.5q-15 0 -26 11z" />
    <glyph glyph-name="uni1EF6" unicode="&#x1ef6;" horiz-adv-x="648" 
d="M633.5 770.5q9.5 -10.5 9.5 -25.5q0 -14 -7 -25l-273 -431v-250q0 -16 -11 -27.5t-28 -11.5q-16 0 -27.5 11.5t-11.5 27.5v250l-272 431q-8 13 -8 25q0 15 11 25.5t27 10.5q11 0 18.5 -4.5t14.5 -14.5l249 -401l248 399q8 11 16 16t20 5q15 0 24.5 -10.5zM297.5 842.5
q-10.5 10.5 -10.5 25.5v28q0 32 32 39l25 5q41 10 41 44q0 22 -14 34t-36 12q-23 0 -44 -16q-9 -9 -25 -9q-13 0 -22.5 9t-9.5 23q0 17 12 27q39 31 88 31q51 0 84 -29.5t33 -76.5q0 -44 -28 -68.5t-73 -31.5l8 -13q0 -20 -10 -32t-25 -12t-25.5 10.5z" />
    <glyph glyph-name="uni0232" unicode="&#x232;" horiz-adv-x="648" 
d="M633.5 770.5q9.5 -10.5 9.5 -25.5q0 -14 -7 -25l-273 -431v-250q0 -16 -11 -27.5t-28 -11.5q-16 0 -27.5 11.5t-11.5 27.5v250l-272 431q-8 13 -8 25q0 15 11 25.5t27 10.5q11 0 18.5 -4.5t14.5 -14.5l249 -401l248 399q8 11 16 16t20 5q15 0 24.5 -10.5zM166 900
q-11 10 -11 26t11 26t28 10h259q16 0 27.5 -10t11.5 -26t-11.5 -26t-27.5 -10h-259q-17 0 -28 10z" />
    <glyph glyph-name="uni1EF8" unicode="&#x1ef8;" horiz-adv-x="648" 
d="M633.5 770.5q9.5 -10.5 9.5 -25.5q0 -14 -7 -25l-273 -431v-250q0 -16 -11 -27.5t-28 -11.5q-16 0 -27.5 11.5t-11.5 27.5v250l-272 431q-8 13 -8 25q0 15 11 25.5t27 10.5q11 0 18.5 -4.5t14.5 -14.5l249 -401l248 399q8 11 16 16t20 5q15 0 24.5 -10.5zM379 870
q-22 9 -47 24q-21 13 -34 18t-26 5q-37 0 -66 -35q-6 -9 -15 -14t-18 -5t-17 5q-7 4 -11.5 11.5t-4.5 15.5q0 12 7 22q25 32 58 49.5t69 17.5q27 0 47 -8t46 -24q23 -14 34.5 -19t26.5 -5q31 0 49 20q15 17 31 17q8 0 16 -5q18 -9 18 -28q0 -11 -8 -22q-40 -49 -105 -49
q-28 0 -50 9z" />
    <glyph glyph-name="Z" unicode="Z" horiz-adv-x="724" 
d="M60 12q-11 12 -11 27t8 24l517 648h-482q-18 0 -28 9t-10 25q0 15 11 25.5t28 10.5h542q18 0 28.5 -12t10.5 -28q0 -13 -7 -21l-519 -650h487q17 0 28 -9.5t11 -25.5q0 -15 -11 -25t-28 -10h-547q-17 0 -28 12z" />
    <glyph glyph-name="Zacute" unicode="&#x179;" horiz-adv-x="724" 
d="M60 12q-11 12 -11 27t8 24l517 648h-482q-18 0 -28 9t-10 25q0 15 11 25.5t28 10.5h542q18 0 28.5 -12t10.5 -28q0 -13 -7 -21l-519 -650h487q17 0 28 -9.5t11 -25.5q0 -15 -11 -25t-28 -10h-547q-17 0 -28 12zM327 875.5q-11 11.5 -11 27.5t9 26l113 113q11 11 27 11
q17 0 28 -11.5t11 -28.5q0 -16 -11 -26l-112 -113q-10 -10 -26 -10q-17 0 -28 11.5z" />
    <glyph glyph-name="Zcaron" unicode="&#x17d;" horiz-adv-x="724" 
d="M60 12q-11 12 -11 27t8 24l517 648h-482q-18 0 -28 9t-10 25q0 15 11 25.5t28 10.5h542q18 0 28.5 -12t10.5 -28q0 -13 -7 -21l-519 -650h487q17 0 28 -9.5t11 -25.5q0 -15 -11 -25t-28 -10h-547q-17 0 -28 12zM343 878l-118 78q-19 13 -19 33q0 13 8.5 21t22.5 8
q15 0 32 -11l93 -63l93 62q17 12 33 12q14 0 22 -8.5t8 -20.5q0 -20 -19 -33l-117 -78q-7 -5 -20 -5t-19 5z" />
    <glyph glyph-name="Zdotaccent" unicode="&#x17b;" horiz-adv-x="724" 
d="M60 12q-11 12 -11 27t8 24l517 648h-482q-18 0 -28 9t-10 25q0 15 11 25.5t28 10.5h542q18 0 28.5 -12t10.5 -28q0 -13 -7 -21l-519 -650h487q17 0 28 -9.5t11 -25.5q0 -15 -11 -25t-28 -10h-547q-17 0 -28 12zM322.5 901q-15.5 16 -15.5 39q0 24 16 39t39 15
q22 0 38 -15t16 -39q0 -23 -16 -39t-39 -16t-38.5 16z" />
    <glyph glyph-name="a" unicode="a" 
d="M480.5 515.5q63.5 -36.5 100 -100.5t36.5 -142v-235q0 -16 -11 -27t-28 -11t-28 10.5t-11 27.5v60q-35 -48 -89 -75.5t-119 -27.5q-76 0 -137.5 36.5t-97 100t-35.5 141.5t36.5 142t100 100.5t141.5 36.5t141.5 -36.5zM442 92q46 27 72.5 74.5t26.5 106.5t-26.5 106.5
t-72.5 75t-103 27.5t-103.5 -27.5t-73 -75t-26.5 -106.5t26.5 -106.5t73 -74.5t103.5 -27t103 27z" />
    <glyph glyph-name="aacute" unicode="&#xe1;" 
d="M480.5 515.5q63.5 -36.5 100 -100.5t36.5 -142v-235q0 -16 -11 -27t-28 -11t-28 10.5t-11 27.5v60q-35 -48 -89 -75.5t-119 -27.5q-76 0 -137.5 36.5t-97 100t-35.5 141.5t36.5 142t100 100.5t141.5 36.5t141.5 -36.5zM442 92q46 27 72.5 74.5t26.5 106.5t-26.5 106.5
t-72.5 75t-103 27.5t-103.5 -27.5t-73 -75t-26.5 -106.5t26.5 -106.5t73 -74.5t103.5 -27t103 27zM304 641.5q-11 11.5 -11 27.5t9 26l113 113q11 11 27 11q17 0 28 -11.5t11 -28.5q0 -16 -11 -26l-112 -113q-10 -10 -26 -10q-17 0 -28 11.5z" />
    <glyph glyph-name="abreve" unicode="&#x103;" 
d="M480.5 515.5q63.5 -36.5 100 -100.5t36.5 -142v-235q0 -16 -11 -27t-28 -11t-28 10.5t-11 27.5v60q-35 -48 -89 -75.5t-119 -27.5q-76 0 -137.5 36.5t-97 100t-35.5 141.5t36.5 142t100 100.5t141.5 36.5t141.5 -36.5zM442 92q46 27 72.5 74.5t26.5 106.5t-26.5 106.5
t-72.5 75t-103 27.5t-103.5 -27.5t-73 -75t-26.5 -106.5t26.5 -106.5t73 -74.5t103.5 -27t103 27zM260 646.5q-36 15.5 -57 42t-21 58.5q0 17 11 28.5t27 11.5q15 0 26 -10.5t11 -25.5q0 -23 23 -39t58 -16q37 0 59.5 15.5t22.5 39.5q0 16 11 26t27 10t26.5 -11.5
t10.5 -27.5q-2 -51 -47.5 -84t-109.5 -33q-42 0 -78 15.5z" />
    <glyph glyph-name="uni1EAF" unicode="&#x1eaf;" 
d="M480.5 515.5q63.5 -36.5 100 -100.5t36.5 -142v-235q0 -16 -11 -27t-28 -11t-28 10.5t-11 27.5v60q-35 -48 -89 -75.5t-119 -27.5q-76 0 -137.5 36.5t-97 100t-35.5 141.5t36.5 142t100 100.5t141.5 36.5t141.5 -36.5zM442 92q46 27 72.5 74.5t26.5 106.5t-26.5 106.5
t-72.5 75t-103 27.5t-103.5 -27.5t-73 -75t-26.5 -106.5t26.5 -106.5t73 -74.5t103.5 -27t103 27zM260 646.5q-36 15.5 -57 42t-21 58.5q0 17 11 28.5t27 11.5q15 0 26 -10.5t11 -25.5q0 -23 23 -39t58 -16q37 0 59.5 15.5t22.5 39.5q0 16 11 26t27 10t26.5 -11.5
t10.5 -27.5q-2 -51 -47.5 -84t-109.5 -33q-42 0 -78 15.5zM304 809.5q-11 11.5 -11 27.5t9 26l113 113q11 11 27 11q17 0 28 -11.5t11 -28.5q0 -16 -11 -26l-112 -113q-10 -10 -26 -10q-17 0 -28 11.5z" />
    <glyph glyph-name="uni1EB7" unicode="&#x1eb7;" 
d="M480.5 515.5q63.5 -36.5 100 -100.5t36.5 -142v-235q0 -16 -11 -27t-28 -11t-28 10.5t-11 27.5v60q-35 -48 -89 -75.5t-119 -27.5q-76 0 -137.5 36.5t-97 100t-35.5 141.5t36.5 142t100 100.5t141.5 36.5t141.5 -36.5zM442 92q46 27 72.5 74.5t26.5 106.5t-26.5 106.5
t-72.5 75t-103 27.5t-103.5 -27.5t-73 -75t-26.5 -106.5t26.5 -106.5t73 -74.5t103.5 -27t103 27zM260 646.5q-36 15.5 -57 42t-21 58.5q0 17 11 28.5t27 11.5q15 0 26 -10.5t11 -25.5q0 -23 23 -39t58 -16q37 0 59.5 15.5t22.5 39.5q0 16 11 26t27 10t26.5 -11.5
t10.5 -27.5q-2 -51 -47.5 -84t-109.5 -33q-42 0 -78 15.5zM299.5 -193q-15.5 16 -15.5 39q0 24 16 39t39 15q22 0 38 -15t16 -39q0 -23 -16 -39t-39 -16t-38.5 16z" />
    <glyph glyph-name="uni1EB1" unicode="&#x1eb1;" 
d="M480.5 515.5q63.5 -36.5 100 -100.5t36.5 -142v-235q0 -16 -11 -27t-28 -11t-28 10.5t-11 27.5v60q-35 -48 -89 -75.5t-119 -27.5q-76 0 -137.5 36.5t-97 100t-35.5 141.5t36.5 142t100 100.5t141.5 36.5t141.5 -36.5zM442 92q46 27 72.5 74.5t26.5 106.5t-26.5 106.5
t-72.5 75t-103 27.5t-103.5 -27.5t-73 -75t-26.5 -106.5t26.5 -106.5t73 -74.5t103.5 -27t103 27zM260 646.5q-36 15.5 -57 42t-21 58.5q0 17 11 28.5t27 11.5q15 0 26 -10.5t11 -25.5q0 -23 23 -39t58 -16q37 0 59.5 15.5t22.5 39.5q0 16 11 26t27 10t26.5 -11.5
t10.5 -27.5q-2 -51 -47.5 -84t-109.5 -33q-42 0 -78 15.5zM312 815l-113 112q-10 10 -10 27t11 28.5t27 11.5t28 -12l112 -113q10 -9 10 -25q0 -17 -11 -28.5t-28 -11.5q-15 0 -26 11z" />
    <glyph glyph-name="uni1EB3" unicode="&#x1eb3;" 
d="M480.5 515.5q63.5 -36.5 100 -100.5t36.5 -142v-235q0 -16 -11 -27t-28 -11t-28 10.5t-11 27.5v60q-35 -48 -89 -75.5t-119 -27.5q-76 0 -137.5 36.5t-97 100t-35.5 141.5t36.5 142t100 100.5t141.5 36.5t141.5 -36.5zM442 92q46 27 72.5 74.5t26.5 106.5t-26.5 106.5
t-72.5 75t-103 27.5t-103.5 -27.5t-73 -75t-26.5 -106.5t26.5 -106.5t73 -74.5t103.5 -27t103 27zM260 646.5q-36 15.5 -57 42t-21 58.5q0 17 11 28.5t27 11.5q15 0 26 -10.5t11 -25.5q0 -23 23 -39t58 -16q37 0 59.5 15.5t22.5 39.5q0 16 11 26t27 10t26.5 -11.5
t10.5 -27.5q-2 -51 -47.5 -84t-109.5 -33q-42 0 -78 15.5zM312.5 776.5q-10.5 10.5 -10.5 25.5v28q0 32 32 39l25 5q41 10 41 44q0 22 -14 34t-36 12q-23 0 -44 -16q-9 -9 -25 -9q-13 0 -22.5 9t-9.5 23q0 17 12 27q39 31 88 31q51 0 84 -29.5t33 -76.5q0 -44 -28 -68.5
t-73 -31.5l8 -13q0 -20 -10 -32t-25 -12t-25.5 10.5z" />
    <glyph glyph-name="uni1EB5" unicode="&#x1eb5;" 
d="M480.5 515.5q63.5 -36.5 100 -100.5t36.5 -142v-235q0 -16 -11 -27t-28 -11t-28 10.5t-11 27.5v60q-35 -48 -89 -75.5t-119 -27.5q-76 0 -137.5 36.5t-97 100t-35.5 141.5t36.5 142t100 100.5t141.5 36.5t141.5 -36.5zM442 92q46 27 72.5 74.5t26.5 106.5t-26.5 106.5
t-72.5 75t-103 27.5t-103.5 -27.5t-73 -75t-26.5 -106.5t26.5 -106.5t73 -74.5t103.5 -27t103 27zM260 646.5q-36 15.5 -57 42t-21 58.5q0 17 11 28.5t27 11.5q15 0 26 -10.5t11 -25.5q0 -23 23 -39t58 -16q37 0 59.5 15.5t22.5 39.5q0 16 11 26t27 10t26.5 -11.5
t10.5 -27.5q-2 -51 -47.5 -84t-109.5 -33q-42 0 -78 15.5zM325 847q-16 15 -25.5 21t-19.5 6q-11 0 -19.5 -9t-18.5 -28q-13 -21 -32 -21q-15 0 -24 9t-9 22q0 9 4 17q19 39 42 56.5t53 17.5q26 0 41.5 -9.5t37.5 -28.5q16 -14 24.5 -19t16.5 -5q7 0 13 5.5t12 18.5
q5 11 15 17.5t20 6.5q4 0 10 -2q24 -10 24 -30q0 -9 -4 -16q-17 -35 -37 -50.5t-46 -15.5q-41 0 -78 37z" />
    <glyph glyph-name="acircumflex" unicode="&#xe2;" 
d="M480.5 515.5q63.5 -36.5 100 -100.5t36.5 -142v-235q0 -16 -11 -27t-28 -11t-28 10.5t-11 27.5v60q-35 -48 -89 -75.5t-119 -27.5q-76 0 -137.5 36.5t-97 100t-35.5 141.5t36.5 142t100 100.5t141.5 36.5t141.5 -36.5zM442 92q46 27 72.5 74.5t26.5 106.5t-26.5 106.5
t-72.5 75t-103 27.5t-103.5 -27.5t-73 -75t-26.5 -106.5t26.5 -106.5t73 -74.5t103.5 -27t103 27zM194.5 643.5q-11.5 9.5 -11.5 25.5q0 21 19 34l118 78q8 5 19 5q10 0 20 -5l117 -78q19 -13 19 -34q0 -15 -11 -25t-28 -10q-11 0 -24 8l-93 64l-93 -64q-11 -8 -23 -8
q-17 0 -28.5 9.5z" />
    <glyph glyph-name="uni1EA5" unicode="&#x1ea5;" 
d="M480.5 515.5q63.5 -36.5 100 -100.5t36.5 -142v-235q0 -16 -11 -27t-28 -11t-28 10.5t-11 27.5v60q-35 -48 -89 -75.5t-119 -27.5q-76 0 -137.5 36.5t-97 100t-35.5 141.5t36.5 142t100 100.5t141.5 36.5t141.5 -36.5zM442 92q46 27 72.5 74.5t26.5 106.5t-26.5 106.5
t-72.5 75t-103 27.5t-103.5 -27.5t-73 -75t-26.5 -106.5t26.5 -106.5t73 -74.5t103.5 -27t103 27zM194.5 643.5q-11.5 9.5 -11.5 25.5q0 21 19 34l118 78q8 5 19 5q10 0 20 -5l117 -78q19 -13 19 -34q0 -15 -11 -25t-28 -10q-11 0 -24 8l-93 64l-93 -64q-11 -8 -23 -8
q-17 0 -28.5 9.5zM400 810.5q-11 11.5 -11 27.5t9 26l113 113q11 11 27 11q17 0 28 -11.5t11 -28.5q0 -16 -11 -26l-112 -113q-10 -10 -26 -10q-17 0 -28 11.5z" />
    <glyph glyph-name="uni1EAD" unicode="&#x1ead;" 
d="M480.5 515.5q63.5 -36.5 100 -100.5t36.5 -142v-235q0 -16 -11 -27t-28 -11t-28 10.5t-11 27.5v60q-35 -48 -89 -75.5t-119 -27.5q-76 0 -137.5 36.5t-97 100t-35.5 141.5t36.5 142t100 100.5t141.5 36.5t141.5 -36.5zM442 92q46 27 72.5 74.5t26.5 106.5t-26.5 106.5
t-72.5 75t-103 27.5t-103.5 -27.5t-73 -75t-26.5 -106.5t26.5 -106.5t73 -74.5t103.5 -27t103 27zM194.5 643.5q-11.5 9.5 -11.5 25.5q0 21 19 34l118 78q8 5 19 5q10 0 20 -5l117 -78q19 -13 19 -34q0 -15 -11 -25t-28 -10q-11 0 -24 8l-93 64l-93 -64q-11 -8 -23 -8
q-17 0 -28.5 9.5zM299.5 -193q-15.5 16 -15.5 39q0 24 16 39t39 15q22 0 38 -15t16 -39q0 -23 -16 -39t-39 -16t-38.5 16z" />
    <glyph glyph-name="uni1EA7" unicode="&#x1ea7;" 
d="M480.5 515.5q63.5 -36.5 100 -100.5t36.5 -142v-235q0 -16 -11 -27t-28 -11t-28 10.5t-11 27.5v60q-35 -48 -89 -75.5t-119 -27.5q-76 0 -137.5 36.5t-97 100t-35.5 141.5t36.5 142t100 100.5t141.5 36.5t141.5 -36.5zM442 92q46 27 72.5 74.5t26.5 106.5t-26.5 106.5
t-72.5 75t-103 27.5t-103.5 -27.5t-73 -75t-26.5 -106.5t26.5 -106.5t73 -74.5t103.5 -27t103 27zM194.5 643.5q-11.5 9.5 -11.5 25.5q0 21 19 34l118 78q8 5 19 5q10 0 20 -5l117 -78q19 -13 19 -34q0 -15 -11 -25t-28 -10q-11 0 -24 8l-93 64l-93 -64q-11 -8 -23 -8
q-17 0 -28.5 9.5zM408 816l-113 112q-10 10 -10 27t11 28.5t27 11.5t28 -12l112 -113q10 -9 10 -25q0 -17 -11 -28.5t-28 -11.5q-15 0 -26 11z" />
    <glyph glyph-name="uni1EA9" unicode="&#x1ea9;" 
d="M480.5 515.5q63.5 -36.5 100 -100.5t36.5 -142v-235q0 -16 -11 -27t-28 -11t-28 10.5t-11 27.5v60q-35 -48 -89 -75.5t-119 -27.5q-76 0 -137.5 36.5t-97 100t-35.5 141.5t36.5 142t100 100.5t141.5 36.5t141.5 -36.5zM442 92q46 27 72.5 74.5t26.5 106.5t-26.5 106.5
t-72.5 75t-103 27.5t-103.5 -27.5t-73 -75t-26.5 -106.5t26.5 -106.5t73 -74.5t103.5 -27t103 27zM197.5 643.5q-11.5 9.5 -11.5 25.5q0 21 19 34l118 78q8 5 19 5q10 0 20 -5l117 -78q19 -13 19 -34q0 -15 -11 -25t-28 -10q-11 0 -24 8l-93 64l-93 -64q-11 -8 -23 -8
q-17 0 -28.5 9.5zM411.5 777.5q-10.5 10.5 -10.5 25.5v28q0 32 32 39l25 5q41 10 41 44q0 22 -14 34t-36 12q-23 0 -44 -16q-9 -9 -25 -9q-13 0 -22.5 9t-9.5 23q0 17 12 27q39 31 88 31q51 0 84 -29.5t33 -76.5q0 -44 -28 -68.5t-73 -31.5l8 -13q0 -20 -10 -32t-25 -12
t-25.5 10.5z" />
    <glyph glyph-name="uni1EAB" unicode="&#x1eab;" 
d="M480.5 515.5q63.5 -36.5 100 -100.5t36.5 -142v-235q0 -16 -11 -27t-28 -11t-28 10.5t-11 27.5v60q-35 -48 -89 -75.5t-119 -27.5q-76 0 -137.5 36.5t-97 100t-35.5 141.5t36.5 142t100 100.5t141.5 36.5t141.5 -36.5zM442 92q46 27 72.5 74.5t26.5 106.5t-26.5 106.5
t-72.5 75t-103 27.5t-103.5 -27.5t-73 -75t-26.5 -106.5t26.5 -106.5t73 -74.5t103.5 -27t103 27zM196.5 643.5q-11.5 9.5 -11.5 25.5q0 21 19 34l118 78q8 5 19 5q10 0 20 -5l117 -78q19 -13 19 -34q0 -15 -11 -25t-28 -10q-11 0 -24 8l-93 64l-93 -64q-11 -8 -23 -8
q-17 0 -28.5 9.5zM322 850q-16 15 -25.5 21t-19.5 6q-11 0 -19.5 -9t-18.5 -28q-13 -21 -32 -21q-15 0 -24 9t-9 22q0 9 4 17q19 39 42 56.5t53 17.5q26 0 41.5 -9.5t37.5 -28.5q16 -14 24.5 -19t16.5 -5q7 0 13 5.5t12 18.5q5 11 15 17.5t20 6.5q4 0 10 -2q24 -10 24 -30
q0 -9 -4 -16q-17 -35 -37 -50.5t-46 -15.5q-41 0 -78 37z" />
    <glyph glyph-name="uni0201" unicode="&#x201;" 
d="M480.5 515.5q63.5 -36.5 100 -100.5t36.5 -142v-235q0 -16 -11 -27t-28 -11t-28 10.5t-11 27.5v60q-35 -48 -89 -75.5t-119 -27.5q-76 0 -137.5 36.5t-97 100t-35.5 141.5t36.5 142t100 100.5t141.5 36.5t141.5 -36.5zM442 92q46 27 72.5 74.5t26.5 106.5t-26.5 106.5
t-72.5 75t-103 27.5t-103.5 -27.5t-73 -75t-26.5 -106.5t26.5 -106.5t73 -74.5t103.5 -27t103 27zM267 643l-61 129q-3 8 -3 14q0 16 11 27.5t28 11.5q12 0 22 -7t13 -17l44 -136q2 -8 2 -12q0 -13 -8.5 -21t-19.5 -8q-19 0 -28 19zM418 643l-61 129q-3 8 -3 14
q0 16 11.5 27.5t28.5 11.5q12 0 22 -7t14 -17l42 -136q2 -4 2 -12q0 -13 -8.5 -21t-19.5 -8q-19 0 -28 19z" />
    <glyph glyph-name="adieresis" unicode="&#xe4;" 
d="M480.5 515.5q63.5 -36.5 100 -100.5t36.5 -142v-235q0 -16 -11 -27t-28 -11t-28 10.5t-11 27.5v60q-35 -48 -89 -75.5t-119 -27.5q-76 0 -137.5 36.5t-97 100t-35.5 141.5t36.5 142t100 100.5t141.5 36.5t141.5 -36.5zM442 92q46 27 72.5 74.5t26.5 106.5t-26.5 106.5
t-72.5 75t-103 27.5t-103.5 -27.5t-73 -75t-26.5 -106.5t26.5 -106.5t73 -74.5t103.5 -27t103 27zM196 663q-16 16 -16 39t16 39t39 16t39 -16t16 -39t-16 -39t-39 -16t-39 16zM405 663q-16 16 -16 39t16 39t39 16t39 -16t16 -39t-16 -39t-39 -16t-39 16z" />
    <glyph glyph-name="uni1EA1" unicode="&#x1ea1;" 
d="M480.5 515.5q63.5 -36.5 100 -100.5t36.5 -142v-235q0 -16 -11 -27t-28 -11t-28 10.5t-11 27.5v60q-35 -48 -89 -75.5t-119 -27.5q-76 0 -137.5 36.5t-97 100t-35.5 141.5t36.5 142t100 100.5t141.5 36.5t141.5 -36.5zM442 92q46 27 72.5 74.5t26.5 106.5t-26.5 106.5
t-72.5 75t-103 27.5t-103.5 -27.5t-73 -75t-26.5 -106.5t26.5 -106.5t73 -74.5t103.5 -27t103 27zM299.5 -193q-15.5 16 -15.5 39q0 24 16 39t39 15q22 0 38 -15t16 -39q0 -23 -16 -39t-39 -16t-38.5 16z" />
    <glyph glyph-name="agrave" unicode="&#xe0;" 
d="M480.5 515.5q63.5 -36.5 100 -100.5t36.5 -142v-235q0 -16 -11 -27t-28 -11t-28 10.5t-11 27.5v60q-35 -48 -89 -75.5t-119 -27.5q-76 0 -137.5 36.5t-97 100t-35.5 141.5t36.5 142t100 100.5t141.5 36.5t141.5 -36.5zM442 92q46 27 72.5 74.5t26.5 106.5t-26.5 106.5
t-72.5 75t-103 27.5t-103.5 -27.5t-73 -75t-26.5 -106.5t26.5 -106.5t73 -74.5t103.5 -27t103 27zM312 647l-113 112q-10 10 -10 27t11 28.5t27 11.5t28 -12l112 -113q10 -9 10 -25q0 -17 -11 -28.5t-28 -11.5q-15 0 -26 11z" />
    <glyph glyph-name="uni1EA3" unicode="&#x1ea3;" 
d="M480.5 515.5q63.5 -36.5 100 -100.5t36.5 -142v-235q0 -16 -11 -27t-28 -11t-28 10.5t-11 27.5v60q-35 -48 -89 -75.5t-119 -27.5q-76 0 -137.5 36.5t-97 100t-35.5 141.5t36.5 142t100 100.5t141.5 36.5t141.5 -36.5zM442 92q46 27 72.5 74.5t26.5 106.5t-26.5 106.5
t-72.5 75t-103 27.5t-103.5 -27.5t-73 -75t-26.5 -106.5t26.5 -106.5t73 -74.5t103.5 -27t103 27zM312.5 608.5q-10.5 10.5 -10.5 25.5v28q0 32 32 39l25 5q41 10 41 44q0 22 -14 34t-36 12q-23 0 -44 -16q-9 -9 -25 -9q-13 0 -22.5 9t-9.5 23q0 17 12 27q39 31 88 31
q51 0 84 -29.5t33 -76.5q0 -44 -28 -68.5t-73 -31.5l8 -13q0 -20 -10 -32t-25 -12t-25.5 10.5z" />
    <glyph glyph-name="uni0203" unicode="&#x203;" 
d="M480.5 515.5q63.5 -36.5 100 -100.5t36.5 -142v-235q0 -16 -11 -27t-28 -11t-28 10.5t-11 27.5v60q-35 -48 -89 -75.5t-119 -27.5q-76 0 -137.5 36.5t-97 100t-35.5 141.5t36.5 142t100 100.5t141.5 36.5t141.5 -36.5zM442 92q46 27 72.5 74.5t26.5 106.5t-26.5 106.5
t-72.5 75t-103 27.5t-103.5 -27.5t-73 -75t-26.5 -106.5t26.5 -106.5t73 -74.5t103.5 -27t103 27zM447.5 753q45.5 -33 47.5 -84q0 -16 -10.5 -27.5t-26.5 -11.5t-27 10t-11 26q0 24 -22.5 39.5t-59.5 15.5q-35 0 -58 -16t-23 -39q0 -15 -11 -25.5t-26 -10.5q-16 0 -27 11.5
t-11 28.5q0 32 21 58.5t57 42t78 15.5q64 0 109.5 -33z" />
    <glyph glyph-name="amacron" unicode="&#x101;" 
d="M480.5 515.5q63.5 -36.5 100 -100.5t36.5 -142v-235q0 -16 -11 -27t-28 -11t-28 10.5t-11 27.5v60q-35 -48 -89 -75.5t-119 -27.5q-76 0 -137.5 36.5t-97 100t-35.5 141.5t36.5 142t100 100.5t141.5 36.5t141.5 -36.5zM442 92q46 27 72.5 74.5t26.5 106.5t-26.5 106.5
t-72.5 75t-103 27.5t-103.5 -27.5t-73 -75t-26.5 -106.5t26.5 -106.5t73 -74.5t103.5 -27t103 27zM181 666q-11 10 -11 26t11 26t28 10h259q16 0 27.5 -10t11.5 -26t-11.5 -26t-27.5 -10h-259q-17 0 -28 10z" />
    <glyph glyph-name="aogonek" unicode="&#x105;" 
d="M715 -156.5q11 -11.5 11 -27.5q0 -18 -13 -31l-40 -26q-30 -21 -64 -21q-48 0 -82.5 34.5t-34.5 82.5q0 55 49 96q26 19 34 39q2 4 8 10h-5q-17 0 -28 10.5t-11 27.5v60q-35 -48 -89 -75.5t-119 -27.5q-76 0 -137.5 36.5t-97 100t-35.5 141.5t36.5 142t100 100.5
t141.5 36.5t141.5 -36.5t100 -100.5t36.5 -142v-235q0 -16 -12 -28h4q16 0 27 -10.5t12 -27.5q0 -40 -62 -85q-16 -12 -16 -32q0 -17 11.5 -28t27.5 -11q12 0 21 6l34 25q11 8 23 8q17 0 28 -11.5zM442 92q46 27 72.5 74.5t26.5 106.5t-26.5 106.5t-72.5 75t-103 27.5
t-103.5 -27.5t-73 -75t-26.5 -106.5t26.5 -106.5t73 -74.5t103.5 -27t103 27z" />
    <glyph glyph-name="aring" unicode="&#xe5;" 
d="M480.5 515.5q63.5 -36.5 100 -100.5t36.5 -142v-235q0 -16 -11 -27t-28 -11t-28 10.5t-11 27.5v60q-35 -48 -89 -75.5t-119 -27.5q-76 0 -137.5 36.5t-97 100t-35.5 141.5t36.5 142t100 100.5t141.5 36.5t141.5 -36.5zM442 92q46 27 72.5 74.5t26.5 106.5t-26.5 106.5
t-72.5 75t-103 27.5t-103.5 -27.5t-73 -75t-26.5 -106.5t26.5 -106.5t73 -74.5t103.5 -27t103 27zM269.5 621q-28.5 28 -28.5 70t28.5 70t69.5 28q42 0 70 -28t28 -70t-28 -70t-70 -28q-41 0 -69.5 28zM376.5 653.5q15.5 15.5 15.5 37.5q0 23 -15.5 38t-37.5 15t-37 -15.5
t-15 -37.5t15 -37.5t37 -15.5t37.5 15.5z" />
    <glyph glyph-name="aringacute" unicode="&#x1fb;" 
d="M480.5 515.5q63.5 -36.5 100 -100.5t36.5 -142v-235q0 -16 -11 -27t-28 -11t-28 10.5t-11 27.5v60q-35 -48 -89 -75.5t-119 -27.5q-76 0 -137.5 36.5t-97 100t-35.5 141.5t36.5 142t100 100.5t141.5 36.5t141.5 -36.5zM442 92q46 27 72.5 74.5t26.5 106.5t-26.5 106.5
t-72.5 75t-103 27.5t-103.5 -27.5t-73 -75t-26.5 -106.5t26.5 -106.5t73 -74.5t103.5 -27t103 27zM269.5 621q-28.5 28 -28.5 70t28.5 70t69.5 28q42 0 70 -28t28 -70t-28 -70t-70 -28q-41 0 -69.5 28zM376.5 653.5q15.5 15.5 15.5 37.5q0 23 -15.5 38t-37.5 15t-37 -15.5
t-15 -37.5t15 -37.5t37 -15.5t37.5 15.5zM304 839.5q-11 11.5 -11 27.5t9 26l113 113q11 11 27 11q17 0 28 -11.5t11 -28.5q0 -16 -11 -26l-112 -113q-10 -10 -26 -10q-17 0 -28 11.5z" />
    <glyph glyph-name="atilde" unicode="&#xe3;" 
d="M480.5 515.5q63.5 -36.5 100 -100.5t36.5 -142v-235q0 -16 -11 -27t-28 -11t-28 10.5t-11 27.5v60q-35 -48 -89 -75.5t-119 -27.5q-76 0 -137.5 36.5t-97 100t-35.5 141.5t36.5 142t100 100.5t141.5 36.5t141.5 -36.5zM442 92q46 27 72.5 74.5t26.5 106.5t-26.5 106.5
t-72.5 75t-103 27.5t-103.5 -27.5t-73 -75t-26.5 -106.5t26.5 -106.5t73 -74.5t103.5 -27t103 27zM394 636q-22 9 -47 24q-21 13 -34 18t-26 5q-37 0 -66 -35q-6 -9 -15 -14t-18 -5t-17 5q-7 4 -11.5 11.5t-4.5 15.5q0 12 7 22q25 32 58 49.5t69 17.5q27 0 47 -8t46 -24
q23 -14 34.5 -19t26.5 -5q31 0 49 20q15 17 31 17q8 0 16 -5q18 -9 18 -28q0 -11 -8 -22q-40 -49 -105 -49q-28 0 -50 9z" />
    <glyph glyph-name="ae" unicode="&#xe6;" horiz-adv-x="1096" 
d="M937 517.5q57 -34.5 88 -95.5t31 -139q0 -16 -10 -25.5t-26 -9.5h-403v-7q10 -79 66 -128t137 -49q39 0 73.5 12t57.5 32q13 10 27 10t22 -8q14 -12 14 -27q0 -12 -12 -23q-33 -28 -84 -46.5t-98 -18.5q-62 0 -114 23.5t-89 66.5v-47q0 -16 -11 -27t-28 -11t-28 10.5
t-11 27.5v60q-35 -48 -89 -75.5t-119 -27.5q-76 0 -137.5 36.5t-97 100t-35.5 141.5t36.5 142t100 100.5t141.5 36.5q79 0 143.5 -38t99.5 -103q31 66 89.5 103.5t133.5 37.5t132 -34.5zM679 436q-50 -47 -61 -124h367q-8 77 -56.5 124t-123.5 47q-76 0 -126 -47zM442 92
q46 27 72.5 74.5t26.5 106.5t-26.5 106.5t-72.5 75t-103 27.5t-103.5 -27.5t-73 -75t-26.5 -106.5t26.5 -106.5t73 -74.5t103.5 -27t103 27z" />
    <glyph glyph-name="aeacute" unicode="&#x1fd;" horiz-adv-x="1096" 
d="M937 517.5q57 -34.5 88 -95.5t31 -139q0 -16 -10 -25.5t-26 -9.5h-403v-7q10 -79 66 -128t137 -49q39 0 73.5 12t57.5 32q13 10 27 10t22 -8q14 -12 14 -27q0 -12 -12 -23q-33 -28 -84 -46.5t-98 -18.5q-62 0 -114 23.5t-89 66.5v-47q0 -16 -11 -27t-28 -11t-28 10.5
t-11 27.5v60q-35 -48 -89 -75.5t-119 -27.5q-76 0 -137.5 36.5t-97 100t-35.5 141.5t36.5 142t100 100.5t141.5 36.5q79 0 143.5 -38t99.5 -103q31 66 89.5 103.5t133.5 37.5t132 -34.5zM679 436q-50 -47 -61 -124h367q-8 77 -56.5 124t-123.5 47q-76 0 -126 -47zM442 92
q46 27 72.5 74.5t26.5 106.5t-26.5 106.5t-72.5 75t-103 27.5t-103.5 -27.5t-73 -75t-26.5 -106.5t26.5 -106.5t73 -74.5t103.5 -27t103 27zM524 641.5q-11 11.5 -11 27.5t9 26l113 113q11 11 27 11q17 0 28 -11.5t11 -28.5q0 -16 -11 -26l-112 -113q-10 -10 -26 -10
q-17 0 -28 11.5z" />
    <glyph glyph-name="b" unicode="b" horiz-adv-x="707" 
d="M513.5 515.5q61.5 -36.5 97 -100t35.5 -141.5t-36.5 -142t-100 -100.5t-141.5 -36.5t-141.5 36.5t-100 100.5t-36.5 142v235q0 6 1 9v224q0 17 10.5 28t27.5 11t28 -11t11 -28v-293q35 48 89 75.5t119 27.5q76 0 137.5 -36.5zM471.5 92.5q46.5 27.5 73 75t26.5 106.5
t-26.5 106.5t-73 74.5t-103.5 27q-79 0 -134.5 -50t-65.5 -128q0 -3 -1 -5q-1 -8 -1 -25q0 -59 26.5 -106.5t72.5 -75t103 -27.5t103.5 27.5z" />
    <glyph glyph-name="c" unicode="c" horiz-adv-x="596" 
d="M194 31.5q-62 36.5 -97.5 100t-35.5 141.5q0 80 34 143.5t94 99.5t135 36q125 0 203 -96q8 -9 8 -21q0 -16 -17 -28q-9 -6 -19 -6q-15 0 -29 15q-30 33 -66 49.5t-80 16.5q-55 0 -98 -26.5t-66.5 -74.5t-23.5 -108q0 -59 25 -106.5t70 -74.5t103 -27q80 0 129 43
q13 11 27 11q12 0 22 -8q14 -12 14 -27q0 -13 -10 -22q-72 -67 -182 -67q-78 0 -140 36.5z" />
    <glyph glyph-name="cacute" unicode="&#x107;" horiz-adv-x="596" 
d="M194 31.5q-62 36.5 -97.5 100t-35.5 141.5q0 80 34 143.5t94 99.5t135 36q125 0 203 -96q8 -9 8 -21q0 -16 -17 -28q-9 -6 -19 -6q-15 0 -29 15q-30 33 -66 49.5t-80 16.5q-55 0 -98 -26.5t-66.5 -74.5t-23.5 -108q0 -59 25 -106.5t70 -74.5t103 -27q80 0 129 43
q13 11 27 11q12 0 22 -8q14 -12 14 -27q0 -13 -10 -22q-72 -67 -182 -67q-78 0 -140 36.5zM289 641.5q-11 11.5 -11 27.5t9 26l113 113q11 11 27 11q17 0 28 -11.5t11 -28.5q0 -16 -11 -26l-112 -113q-10 -10 -26 -10q-17 0 -28 11.5z" />
    <glyph glyph-name="ccaron" unicode="&#x10d;" horiz-adv-x="596" 
d="M194 31.5q-62 36.5 -97.5 100t-35.5 141.5q0 80 34 143.5t94 99.5t135 36q125 0 203 -96q8 -9 8 -21q0 -16 -17 -28q-9 -6 -19 -6q-15 0 -29 15q-30 33 -66 49.5t-80 16.5q-55 0 -98 -26.5t-66.5 -74.5t-23.5 -108q0 -59 25 -106.5t70 -74.5t103 -27q80 0 129 43
q13 11 27 11q12 0 22 -8q14 -12 14 -27q0 -13 -10 -22q-72 -67 -182 -67q-78 0 -140 36.5zM305 644l-118 78q-19 13 -19 33q0 13 8.5 21t22.5 8q15 0 32 -11l93 -63l93 62q17 12 33 12q14 0 22 -8.5t8 -20.5q0 -20 -19 -33l-117 -78q-7 -5 -20 -5t-19 5z" />
    <glyph glyph-name="ccedilla" unicode="&#xe7;" horiz-adv-x="596" 
d="M526 84q0 -13 -10 -22q-60 -56 -149 -65l-14 -33q50 -13 71.5 -36t21.5 -57q0 -28 -18 -52t-49 -38t-69 -14q-52 0 -87 22t-35 52q0 15 11 26t26 11q19 0 35 -21q16 -24 51 -24q23 0 38 10t15 28q0 19 -12 30t-40 18q-19 4 -29 11.5t-10 20.5q0 8 5 23l10 25
q-66 10 -118 48.5t-80.5 97t-28.5 128.5q0 80 34 143.5t94 99.5t135 36q125 0 203 -96q8 -9 8 -21q0 -16 -17 -28q-9 -6 -19 -6q-15 0 -29 15q-30 33 -66 49.5t-80 16.5q-55 0 -98 -26.5t-66.5 -74.5t-23.5 -108q0 -59 25 -106.5t70 -74.5t103 -27q80 0 129 43q13 11 27 11
q12 0 22 -8q14 -12 14 -27z" />
    <glyph glyph-name="ccircumflex" unicode="&#x109;" horiz-adv-x="596" 
d="M194 31.5q-62 36.5 -97.5 100t-35.5 141.5q0 80 34 143.5t94 99.5t135 36q125 0 203 -96q8 -9 8 -21q0 -16 -17 -28q-9 -6 -19 -6q-15 0 -29 15q-30 33 -66 49.5t-80 16.5q-55 0 -98 -26.5t-66.5 -74.5t-23.5 -108q0 -59 25 -106.5t70 -74.5t103 -27q80 0 129 43
q13 11 27 11q12 0 22 -8q14 -12 14 -27q0 -13 -10 -22q-72 -67 -182 -67q-78 0 -140 36.5zM179.5 643.5q-11.5 9.5 -11.5 25.5q0 21 19 34l118 78q8 5 19 5q10 0 20 -5l117 -78q19 -13 19 -34q0 -15 -11 -25t-28 -10q-11 0 -24 8l-93 64l-93 -64q-11 -8 -23 -8
q-17 0 -28.5 9.5z" />
    <glyph glyph-name="cdotaccent" unicode="&#x10b;" horiz-adv-x="596" 
d="M194 31.5q-62 36.5 -97.5 100t-35.5 141.5q0 80 34 143.5t94 99.5t135 36q125 0 203 -96q8 -9 8 -21q0 -16 -17 -28q-9 -6 -19 -6q-15 0 -29 15q-30 33 -66 49.5t-80 16.5q-55 0 -98 -26.5t-66.5 -74.5t-23.5 -108q0 -59 25 -106.5t70 -74.5t103 -27q80 0 129 43
q13 11 27 11q12 0 22 -8q14 -12 14 -27q0 -13 -10 -22q-72 -67 -182 -67q-78 0 -140 36.5zM284.5 667q-15.5 16 -15.5 39q0 24 16 39t39 15q22 0 38 -15t16 -39q0 -23 -16 -39t-39 -16t-38.5 16z" />
    <glyph glyph-name="d" unicode="d" horiz-adv-x="707" 
d="M617 509v-235q0 -78 -36.5 -142t-100 -100.5t-141.5 -36.5t-141.5 36.5t-100 100.5t-36.5 142t35.5 141.5t97 100t137.5 36.5q65 0 119 -27.5t89 -75.5v293q0 17 11 28t28 11t27.5 -11t10.5 -28v-224q1 -3 1 -9zM442 92.5q46 27.5 72.5 75t26.5 106.5q0 17 -1 25
q-1 2 -1 5q-10 78 -65.5 128t-134.5 50q-57 0 -103.5 -27t-73 -74.5t-26.5 -106.5t26.5 -106.5t73 -75t103.5 -27.5t103 27.5z" />
    <glyph glyph-name="eth" unicode="&#xf0;" horiz-adv-x="667" 
d="M497 650q52 -53 75.5 -124.5t24.5 -170.5v-82q0 -80 -35 -143.5t-96 -99t-139 -35.5q-77 0 -137.5 33.5t-94.5 93.5t-34 136q0 75 33 134.5t91.5 92.5t133.5 33q76 0 133.5 -38t84.5 -103q-6 121 -53.5 192t-155.5 121l-35 -69q-7 -15 -23 -15q-8 0 -15 4q-15 8 -15 22
q0 7 4 14l33 65q-16 7 -52 19q-33 12 -33 33q0 3 2 11q7 20 29 20q7 0 21 -4q22 -7 62 -23l28 56q7 16 22 16q8 0 15 -4q16 -9 16 -23q0 -4 -4 -14l-27 -53q89 -42 141 -95zM427.5 89.5q44.5 24.5 69.5 68.5t25 100q0 55 -25 98.5t-69.5 67.5t-100.5 24q-55 0 -98.5 -24
t-68 -67.5t-24.5 -98.5q0 -56 24.5 -100t68 -68.5t98.5 -24.5q56 0 100.5 24.5z" />
    <glyph glyph-name="dcaron" unicode="&#x10f;" horiz-adv-x="790" 
d="M617 509v-235q0 -78 -36.5 -142t-100 -100.5t-141.5 -36.5t-141.5 36.5t-100 100.5t-36.5 142t35.5 141.5t97 100t137.5 36.5q65 0 119 -27.5t89 -75.5v293q0 17 11 28t28 11t27.5 -11t10.5 -28v-224q1 -3 1 -9zM442 92.5q46 27.5 72.5 75t26.5 106.5q0 17 -1 25
q-1 2 -1 5q-10 78 -65.5 128t-134.5 50q-57 0 -103.5 -27t-73 -74.5t-26.5 -106.5t26.5 -106.5t73 -75t103.5 -27.5t103 27.5zM677 529.5q-6 5.5 -6 15.5q0 12 16 37q13 19 21 36.5t10 39.5q1 13 -1 22.5t-7 22.5q-3 8 -6 19t-3 23q0 20 12.5 29.5t33.5 9.5q25 0 39 -21
t14 -54q0 -7 -2 -23q-5 -34 -24 -72t-42 -64t-39 -26q-10 0 -16 5.5z" />
    <glyph glyph-name="dcroat" unicode="&#x111;" horiz-adv-x="707" 
d="M696.5 677.5q10.5 -8.5 10.5 -23.5q0 -14 -11 -23.5t-27 -9.5h-53v-103q1 -3 1 -9v-235q0 -78 -36.5 -142t-100 -100.5t-141.5 -36.5t-141.5 36.5t-100 100.5t-36.5 142t35.5 141.5t97 100t137.5 36.5q65 0 119 -27.5t89 -75.5v172h-161q-16 0 -26.5 9.5t-10.5 23.5
q0 15 10 23.5t27 8.5h161v56q0 17 11 28t28 11t27.5 -11t10.5 -28v-56h53q17 0 27.5 -8.5zM442 92.5q46 27.5 72.5 75t26.5 106.5q0 17 -1 25q-1 2 -1 5q-10 78 -65.5 128t-134.5 50q-57 0 -103.5 -27t-73 -74.5t-26.5 -106.5t26.5 -106.5t73 -75t103.5 -27.5t103 27.5z" />
    <glyph glyph-name="e" unicode="e" horiz-adv-x="614" 
d="M454 517.5q57 -34.5 88.5 -95.5t31.5 -139q0 -16 -10 -25.5t-26 -9.5h-404q8 -82 64 -133t140 -51q36 0 72.5 12.5t58.5 31.5q13 10 27 10q11 0 22 -8q13 -12 13 -27q0 -13 -11 -23q-33 -28 -84 -46.5t-98 -18.5q-80 0 -143 35.5t-98.5 99t-35.5 143.5q0 81 33.5 144.5
t93 99t135.5 35.5q74 0 131 -34.5zM197 436q-50 -47 -61 -124h366q-8 77 -56 124t-123 47q-76 0 -126 -47z" />
    <glyph glyph-name="eacute" unicode="&#xe9;" horiz-adv-x="614" 
d="M454 517.5q57 -34.5 88.5 -95.5t31.5 -139q0 -16 -10 -25.5t-26 -9.5h-404q8 -82 64 -133t140 -51q36 0 72.5 12.5t58.5 31.5q13 10 27 10q11 0 22 -8q13 -12 13 -27q0 -13 -11 -23q-33 -28 -84 -46.5t-98 -18.5q-80 0 -143 35.5t-98.5 99t-35.5 143.5q0 81 33.5 144.5
t93 99t135.5 35.5q74 0 131 -34.5zM197 436q-50 -47 -61 -124h366q-8 77 -56 124t-123 47q-76 0 -126 -47zM283 641.5q-11 11.5 -11 27.5t9 26l113 113q11 11 27 11q17 0 28 -11.5t11 -28.5q0 -16 -11 -26l-112 -113q-10 -10 -26 -10q-17 0 -28 11.5z" />
    <glyph glyph-name="ebreve" unicode="&#x115;" horiz-adv-x="614" 
d="M454 517.5q57 -34.5 88.5 -95.5t31.5 -139q0 -16 -10 -25.5t-26 -9.5h-404q8 -82 64 -133t140 -51q36 0 72.5 12.5t58.5 31.5q13 10 27 10q11 0 22 -8q13 -12 13 -27q0 -13 -11 -23q-33 -28 -84 -46.5t-98 -18.5q-80 0 -143 35.5t-98.5 99t-35.5 143.5q0 81 33.5 144.5
t93 99t135.5 35.5q74 0 131 -34.5zM197 436q-50 -47 -61 -124h366q-8 77 -56 124t-123 47q-76 0 -126 -47zM239 646.5q-36 15.5 -57 42t-21 58.5q0 17 11 28.5t27 11.5q15 0 26 -10.5t11 -25.5q0 -23 23 -39t58 -16q37 0 59.5 15.5t22.5 39.5q0 16 11 26t27 10t26.5 -11.5
t10.5 -27.5q-2 -51 -47.5 -84t-109.5 -33q-42 0 -78 15.5z" />
    <glyph glyph-name="ecaron" unicode="&#x11b;" horiz-adv-x="614" 
d="M454 517.5q57 -34.5 88.5 -95.5t31.5 -139q0 -16 -10 -25.5t-26 -9.5h-404q8 -82 64 -133t140 -51q36 0 72.5 12.5t58.5 31.5q13 10 27 10q11 0 22 -8q13 -12 13 -27q0 -13 -11 -23q-33 -28 -84 -46.5t-98 -18.5q-80 0 -143 35.5t-98.5 99t-35.5 143.5q0 81 33.5 144.5
t93 99t135.5 35.5q74 0 131 -34.5zM197 436q-50 -47 -61 -124h366q-8 77 -56 124t-123 47q-76 0 -126 -47zM299 644l-118 78q-19 13 -19 33q0 13 8.5 21t22.5 8q15 0 32 -11l93 -63l93 62q17 12 33 12q14 0 22 -8.5t8 -20.5q0 -20 -19 -33l-117 -78q-7 -5 -20 -5t-19 5z" />
    <glyph glyph-name="ecircumflex" unicode="&#xea;" horiz-adv-x="614" 
d="M454 517.5q57 -34.5 88.5 -95.5t31.5 -139q0 -16 -10 -25.5t-26 -9.5h-404q8 -82 64 -133t140 -51q36 0 72.5 12.5t58.5 31.5q13 10 27 10q11 0 22 -8q13 -12 13 -27q0 -13 -11 -23q-33 -28 -84 -46.5t-98 -18.5q-80 0 -143 35.5t-98.5 99t-35.5 143.5q0 81 33.5 144.5
t93 99t135.5 35.5q74 0 131 -34.5zM197 436q-50 -47 -61 -124h366q-8 77 -56 124t-123 47q-76 0 -126 -47zM173.5 643.5q-11.5 9.5 -11.5 25.5q0 21 19 34l118 78q8 5 19 5q10 0 20 -5l117 -78q19 -13 19 -34q0 -15 -11 -25t-28 -10q-11 0 -24 8l-93 64l-93 -64
q-11 -8 -23 -8q-17 0 -28.5 9.5z" />
    <glyph glyph-name="uni1EBF" unicode="&#x1ebf;" horiz-adv-x="614" 
d="M454 517.5q57 -34.5 88.5 -95.5t31.5 -139q0 -16 -10 -25.5t-26 -9.5h-404q8 -82 64 -133t140 -51q36 0 72.5 12.5t58.5 31.5q13 10 27 10q11 0 22 -8q13 -12 13 -27q0 -13 -11 -23q-33 -28 -84 -46.5t-98 -18.5q-80 0 -143 35.5t-98.5 99t-35.5 143.5q0 81 33.5 144.5
t93 99t135.5 35.5q74 0 131 -34.5zM197 436q-50 -47 -61 -124h366q-8 77 -56 124t-123 47q-76 0 -126 -47zM173.5 643.5q-11.5 9.5 -11.5 25.5q0 21 19 34l118 78q8 5 19 5q10 0 20 -5l117 -78q19 -13 19 -34q0 -15 -11 -25t-28 -10q-11 0 -24 8l-93 64l-93 -64
q-11 -8 -23 -8q-17 0 -28.5 9.5zM379 810.5q-11 11.5 -11 27.5t9 26l113 113q11 11 27 11q17 0 28 -11.5t11 -28.5q0 -16 -11 -26l-112 -113q-10 -10 -26 -10q-17 0 -28 11.5z" />
    <glyph glyph-name="uni1EC7" unicode="&#x1ec7;" horiz-adv-x="614" 
d="M454 517.5q57 -34.5 88.5 -95.5t31.5 -139q0 -16 -10 -25.5t-26 -9.5h-404q8 -82 64 -133t140 -51q36 0 72.5 12.5t58.5 31.5q13 10 27 10q11 0 22 -8q13 -12 13 -27q0 -13 -11 -23q-33 -28 -84 -46.5t-98 -18.5q-80 0 -143 35.5t-98.5 99t-35.5 143.5q0 81 33.5 144.5
t93 99t135.5 35.5q74 0 131 -34.5zM197 436q-50 -47 -61 -124h366q-8 77 -56 124t-123 47q-76 0 -126 -47zM173.5 643.5q-11.5 9.5 -11.5 25.5q0 21 19 34l118 78q8 5 19 5q10 0 20 -5l117 -78q19 -13 19 -34q0 -15 -11 -25t-28 -10q-11 0 -24 8l-93 64l-93 -64
q-11 -8 -23 -8q-17 0 -28.5 9.5zM278.5 -193q-15.5 16 -15.5 39q0 24 16 39t39 15q22 0 38 -15t16 -39q0 -23 -16 -39t-39 -16t-38.5 16z" />
    <glyph glyph-name="uni1EC1" unicode="&#x1ec1;" horiz-adv-x="614" 
d="M454 517.5q57 -34.5 88.5 -95.5t31.5 -139q0 -16 -10 -25.5t-26 -9.5h-404q8 -82 64 -133t140 -51q36 0 72.5 12.5t58.5 31.5q13 10 27 10q11 0 22 -8q13 -12 13 -27q0 -13 -11 -23q-33 -28 -84 -46.5t-98 -18.5q-80 0 -143 35.5t-98.5 99t-35.5 143.5q0 81 33.5 144.5
t93 99t135.5 35.5q74 0 131 -34.5zM197 436q-50 -47 -61 -124h366q-8 77 -56 124t-123 47q-76 0 -126 -47zM173.5 643.5q-11.5 9.5 -11.5 25.5q0 21 19 34l118 78q8 5 19 5q10 0 20 -5l117 -78q19 -13 19 -34q0 -15 -11 -25t-28 -10q-11 0 -24 8l-93 64l-93 -64
q-11 -8 -23 -8q-17 0 -28.5 9.5zM387 816l-113 112q-10 10 -10 27t11 28.5t27 11.5t28 -12l112 -113q10 -9 10 -25q0 -17 -11 -28.5t-28 -11.5q-15 0 -26 11z" />
    <glyph glyph-name="uni1EC3" unicode="&#x1ec3;" horiz-adv-x="614" 
d="M454 517.5q57 -34.5 88.5 -95.5t31.5 -139q0 -16 -10 -25.5t-26 -9.5h-404q8 -82 64 -133t140 -51q36 0 72.5 12.5t58.5 31.5q13 10 27 10q11 0 22 -8q13 -12 13 -27q0 -13 -11 -23q-33 -28 -84 -46.5t-98 -18.5q-80 0 -143 35.5t-98.5 99t-35.5 143.5q0 81 33.5 144.5
t93 99t135.5 35.5q74 0 131 -34.5zM197 436q-50 -47 -61 -124h366q-8 77 -56 124t-123 47q-76 0 -126 -47zM176.5 643.5q-11.5 9.5 -11.5 25.5q0 21 19 34l118 78q8 5 19 5q10 0 20 -5l117 -78q19 -13 19 -34q0 -15 -11 -25t-28 -10q-11 0 -24 8l-93 64l-93 -64
q-11 -8 -23 -8q-17 0 -28.5 9.5zM390.5 777.5q-10.5 10.5 -10.5 25.5v28q0 32 32 39l25 5q41 10 41 44q0 22 -14 34t-36 12q-23 0 -44 -16q-9 -9 -25 -9q-13 0 -22.5 9t-9.5 23q0 17 12 27q39 31 88 31q51 0 84 -29.5t33 -76.5q0 -44 -28 -68.5t-73 -31.5l8 -13
q0 -20 -10 -32t-25 -12t-25.5 10.5z" />
    <glyph glyph-name="uni1EC5" unicode="&#x1ec5;" horiz-adv-x="614" 
d="M454 517.5q57 -34.5 88.5 -95.5t31.5 -139q0 -16 -10 -25.5t-26 -9.5h-404q8 -82 64 -133t140 -51q36 0 72.5 12.5t58.5 31.5q13 10 27 10q11 0 22 -8q13 -12 13 -27q0 -13 -11 -23q-33 -28 -84 -46.5t-98 -18.5q-80 0 -143 35.5t-98.5 99t-35.5 143.5q0 81 33.5 144.5
t93 99t135.5 35.5q74 0 131 -34.5zM197 436q-50 -47 -61 -124h366q-8 77 -56 124t-123 47q-76 0 -126 -47zM175.5 643.5q-11.5 9.5 -11.5 25.5q0 21 19 34l118 78q8 5 19 5q10 0 20 -5l117 -78q19 -13 19 -34q0 -15 -11 -25t-28 -10q-11 0 -24 8l-93 64l-93 -64
q-11 -8 -23 -8q-17 0 -28.5 9.5zM301 850q-16 15 -25.5 21t-19.5 6q-11 0 -19.5 -9t-18.5 -28q-13 -21 -32 -21q-15 0 -24 9t-9 22q0 9 4 17q19 39 42 56.5t53 17.5q26 0 41.5 -9.5t37.5 -28.5q16 -14 24.5 -19t16.5 -5q7 0 13 5.5t12 18.5q5 11 15 17.5t20 6.5q4 0 10 -2
q24 -10 24 -30q0 -9 -4 -16q-17 -35 -37 -50.5t-46 -15.5q-41 0 -78 37z" />
    <glyph glyph-name="uni0205" unicode="&#x205;" horiz-adv-x="614" 
d="M454 517.5q57 -34.5 88.5 -95.5t31.5 -139q0 -16 -10 -25.5t-26 -9.5h-404q8 -82 64 -133t140 -51q36 0 72.5 12.5t58.5 31.5q13 10 27 10q11 0 22 -8q13 -12 13 -27q0 -13 -11 -23q-33 -28 -84 -46.5t-98 -18.5q-80 0 -143 35.5t-98.5 99t-35.5 143.5q0 81 33.5 144.5
t93 99t135.5 35.5q74 0 131 -34.5zM197 436q-50 -47 -61 -124h366q-8 77 -56 124t-123 47q-76 0 -126 -47zM246 643l-61 129q-3 8 -3 14q0 16 11 27.5t28 11.5q12 0 22 -7t13 -17l44 -136q2 -8 2 -12q0 -13 -8.5 -21t-19.5 -8q-19 0 -28 19zM397 643l-61 129q-3 8 -3 14
q0 16 11.5 27.5t28.5 11.5q12 0 22 -7t14 -17l42 -136q2 -4 2 -12q0 -13 -8.5 -21t-19.5 -8q-19 0 -28 19z" />
    <glyph glyph-name="edieresis" unicode="&#xeb;" horiz-adv-x="614" 
d="M454 517.5q57 -34.5 88.5 -95.5t31.5 -139q0 -16 -10 -25.5t-26 -9.5h-404q8 -82 64 -133t140 -51q36 0 72.5 12.5t58.5 31.5q13 10 27 10q11 0 22 -8q13 -12 13 -27q0 -13 -11 -23q-33 -28 -84 -46.5t-98 -18.5q-80 0 -143 35.5t-98.5 99t-35.5 143.5q0 81 33.5 144.5
t93 99t135.5 35.5q74 0 131 -34.5zM197 436q-50 -47 -61 -124h366q-8 77 -56 124t-123 47q-76 0 -126 -47zM175 663q-16 16 -16 39t16 39t39 16t39 -16t16 -39t-16 -39t-39 -16t-39 16zM384 663q-16 16 -16 39t16 39t39 16t39 -16t16 -39t-16 -39t-39 -16t-39 16z" />
    <glyph glyph-name="edotaccent" unicode="&#x117;" horiz-adv-x="614" 
d="M454 517.5q57 -34.5 88.5 -95.5t31.5 -139q0 -16 -10 -25.5t-26 -9.5h-404q8 -82 64 -133t140 -51q36 0 72.5 12.5t58.5 31.5q13 10 27 10q11 0 22 -8q13 -12 13 -27q0 -13 -11 -23q-33 -28 -84 -46.5t-98 -18.5q-80 0 -143 35.5t-98.5 99t-35.5 143.5q0 81 33.5 144.5
t93 99t135.5 35.5q74 0 131 -34.5zM197 436q-50 -47 -61 -124h366q-8 77 -56 124t-123 47q-76 0 -126 -47zM278.5 667q-15.5 16 -15.5 39q0 24 16 39t39 15q22 0 38 -15t16 -39q0 -23 -16 -39t-39 -16t-38.5 16z" />
    <glyph glyph-name="uni1EB9" unicode="&#x1eb9;" horiz-adv-x="614" 
d="M454 517.5q57 -34.5 88.5 -95.5t31.5 -139q0 -16 -10 -25.5t-26 -9.5h-404q8 -82 64 -133t140 -51q36 0 72.5 12.5t58.5 31.5q13 10 27 10q11 0 22 -8q13 -12 13 -27q0 -13 -11 -23q-33 -28 -84 -46.5t-98 -18.5q-80 0 -143 35.5t-98.5 99t-35.5 143.5q0 81 33.5 144.5
t93 99t135.5 35.5q74 0 131 -34.5zM197 436q-50 -47 -61 -124h366q-8 77 -56 124t-123 47q-76 0 -126 -47zM278.5 -193q-15.5 16 -15.5 39q0 24 16 39t39 15q22 0 38 -15t16 -39q0 -23 -16 -39t-39 -16t-38.5 16z" />
    <glyph glyph-name="egrave" unicode="&#xe8;" horiz-adv-x="614" 
d="M454 517.5q57 -34.5 88.5 -95.5t31.5 -139q0 -16 -10 -25.5t-26 -9.5h-404q8 -82 64 -133t140 -51q36 0 72.5 12.5t58.5 31.5q13 10 27 10q11 0 22 -8q13 -12 13 -27q0 -13 -11 -23q-33 -28 -84 -46.5t-98 -18.5q-80 0 -143 35.5t-98.5 99t-35.5 143.5q0 81 33.5 144.5
t93 99t135.5 35.5q74 0 131 -34.5zM197 436q-50 -47 -61 -124h366q-8 77 -56 124t-123 47q-76 0 -126 -47zM291 647l-113 112q-10 10 -10 27t11 28.5t27 11.5t28 -12l112 -113q10 -9 10 -25q0 -17 -11 -28.5t-28 -11.5q-15 0 -26 11z" />
    <glyph glyph-name="uni1EBB" unicode="&#x1ebb;" horiz-adv-x="614" 
d="M454 517.5q57 -34.5 88.5 -95.5t31.5 -139q0 -16 -10 -25.5t-26 -9.5h-404q8 -82 64 -133t140 -51q36 0 72.5 12.5t58.5 31.5q13 10 27 10q11 0 22 -8q13 -12 13 -27q0 -13 -11 -23q-33 -28 -84 -46.5t-98 -18.5q-80 0 -143 35.5t-98.5 99t-35.5 143.5q0 81 33.5 144.5
t93 99t135.5 35.5q74 0 131 -34.5zM197 436q-50 -47 -61 -124h366q-8 77 -56 124t-123 47q-76 0 -126 -47zM291.5 608.5q-10.5 10.5 -10.5 25.5v28q0 32 32 39l25 5q41 10 41 44q0 22 -14 34t-36 12q-23 0 -44 -16q-9 -9 -25 -9q-13 0 -22.5 9t-9.5 23q0 17 12 27
q39 31 88 31q51 0 84 -29.5t33 -76.5q0 -44 -28 -68.5t-73 -31.5l8 -13q0 -20 -10 -32t-25 -12t-25.5 10.5z" />
    <glyph glyph-name="uni0207" unicode="&#x207;" horiz-adv-x="614" 
d="M454 517.5q57 -34.5 88.5 -95.5t31.5 -139q0 -16 -10 -25.5t-26 -9.5h-404q8 -82 64 -133t140 -51q36 0 72.5 12.5t58.5 31.5q13 10 27 10q11 0 22 -8q13 -12 13 -27q0 -13 -11 -23q-33 -28 -84 -46.5t-98 -18.5q-80 0 -143 35.5t-98.5 99t-35.5 143.5q0 81 33.5 144.5
t93 99t135.5 35.5q74 0 131 -34.5zM197 436q-50 -47 -61 -124h366q-8 77 -56 124t-123 47q-76 0 -126 -47zM426.5 753q45.5 -33 47.5 -84q0 -16 -10.5 -27.5t-26.5 -11.5t-27 10t-11 26q0 24 -22.5 39.5t-59.5 15.5q-35 0 -58 -16t-23 -39q0 -15 -11 -25.5t-26 -10.5
q-16 0 -27 11.5t-11 28.5q0 32 21 58.5t57 42t78 15.5q64 0 109.5 -33z" />
    <glyph glyph-name="emacron" unicode="&#x113;" horiz-adv-x="614" 
d="M454 517.5q57 -34.5 88.5 -95.5t31.5 -139q0 -16 -10 -25.5t-26 -9.5h-404q8 -82 64 -133t140 -51q36 0 72.5 12.5t58.5 31.5q13 10 27 10q11 0 22 -8q13 -12 13 -27q0 -13 -11 -23q-33 -28 -84 -46.5t-98 -18.5q-80 0 -143 35.5t-98.5 99t-35.5 143.5q0 81 33.5 144.5
t93 99t135.5 35.5q74 0 131 -34.5zM197 436q-50 -47 -61 -124h366q-8 77 -56 124t-123 47q-76 0 -126 -47zM160 666q-11 10 -11 26t11 26t28 10h259q16 0 27.5 -10t11.5 -26t-11.5 -26t-27.5 -10h-259q-17 0 -28 10z" />
    <glyph glyph-name="eogonek" unicode="&#x119;" horiz-adv-x="614" 
d="M454 517.5q57 -34.5 88.5 -95.5t31.5 -139q0 -16 -10 -25.5t-26 -9.5h-404q8 -82 64 -133t140 -51q23 0 53 7l10 3q44 13 68 34q13 10 27 10q11 0 22 -8q13 -12 13 -27q0 -13 -11 -23q-31 -27 -78 -44q-10 -29 -58 -65q-16 -12 -16 -32q0 -17 11.5 -28t27.5 -11
q12 0 21 6l34 25q11 8 23 8q17 0 28 -11.5t11 -27.5q0 -18 -13 -31l-40 -26q-30 -21 -64 -21q-48 0 -82.5 34.5t-34.5 82.5q0 42 29 77q-75 4 -134 40t-91.5 97.5t-32.5 139.5q0 81 33.5 144.5t93 99t135.5 35.5q74 0 131 -34.5zM197 436q-50 -47 -61 -124h366
q-8 77 -56 124t-123 47q-76 0 -126 -47z" />
    <glyph glyph-name="uni1EBD" unicode="&#x1ebd;" horiz-adv-x="614" 
d="M454 517.5q57 -34.5 88.5 -95.5t31.5 -139q0 -16 -10 -25.5t-26 -9.5h-404q8 -82 64 -133t140 -51q36 0 72.5 12.5t58.5 31.5q13 10 27 10q11 0 22 -8q13 -12 13 -27q0 -13 -11 -23q-33 -28 -84 -46.5t-98 -18.5q-80 0 -143 35.5t-98.5 99t-35.5 143.5q0 81 33.5 144.5
t93 99t135.5 35.5q74 0 131 -34.5zM197 436q-50 -47 -61 -124h366q-8 77 -56 124t-123 47q-76 0 -126 -47zM373 636q-22 9 -47 24q-21 13 -34 18t-26 5q-37 0 -66 -35q-6 -9 -15 -14t-18 -5t-17 5q-7 4 -11.5 11.5t-4.5 15.5q0 12 7 22q25 32 58 49.5t69 17.5q27 0 47 -8
t46 -24q23 -14 34.5 -19t26.5 -5q31 0 49 20q15 17 31 17q8 0 16 -5q18 -9 18 -28q0 -11 -8 -22q-40 -49 -105 -49q-28 0 -50 9z" />
    <glyph glyph-name="uni0259" unicode="&#x259;" horiz-adv-x="614" 
d="M419 516.5q63 -35.5 98.5 -99t35.5 -143.5q0 -81 -33.5 -144.5t-93 -99t-135.5 -35.5q-74 0 -131 34.5t-88.5 95.5t-31.5 139q0 16 10 25.5t26 9.5h404q-8 82 -64 133t-140 51q-36 0 -72.5 -12.5t-58.5 -31.5q-13 -10 -27 -10q-11 0 -22 8q-13 12 -13 27q0 13 11 23
q33 28 84 46.5t98 18.5q80 0 143 -35.5zM417 111q50 47 61 124h-366q8 -77 56 -124t123 -47q76 0 126 47z" />
    <glyph glyph-name="f" unicode="f" horiz-adv-x="366" 
d="M231.5 667q-33.5 -44 -33.5 -117v-23h120q16 0 25.5 -9.5t9.5 -24.5q0 -14 -9.5 -23.5t-25.5 -9.5h-120v-421q0 -18 -10.5 -28.5t-29.5 -10.5q-16 0 -26.5 10.5t-10.5 28.5v421h-64q-16 0 -25.5 9.5t-9.5 23.5q0 15 9.5 24.5t25.5 9.5h64v19q0 107 55 171t155 64
q17 0 28 -10t11 -25t-11 -25t-28 -10q-66 0 -99.5 -44z" />
    <glyph glyph-name="g" unicode="g" 
d="M482 516.5q63 -35.5 99 -99t36 -144.5v-204q0 -80 -35.5 -145t-98.5 -102.5t-142 -37.5q-77 0 -137 29t-101 81q-9 10 -9 23q0 15 14 26q10 7 22 7q9 0 18 -4.5t14 -11.5q30 -38 76 -59t104 -21q56 0 101.5 27.5t71.5 77t26 113.5v45q-30 -57 -85 -89.5t-125 -32.5
q-78 0 -139.5 35.5t-96 99t-34.5 143.5q0 81 36 144.5t99.5 99t142.5 35.5q80 0 143 -35.5zM443 91.5q46 26.5 72 74t26 107.5t-26 107.5t-72 74.5t-104 27q-59 0 -105 -27t-72 -74.5t-26 -107.5t26 -107.5t72 -74t105 -26.5q58 0 104 26.5z" />
    <glyph glyph-name="gbreve" unicode="&#x11f;" 
d="M482 516.5q63 -35.5 99 -99t36 -144.5v-204q0 -80 -35.5 -145t-98.5 -102.5t-142 -37.5q-77 0 -137 29t-101 81q-9 10 -9 23q0 15 14 26q10 7 22 7q9 0 18 -4.5t14 -11.5q30 -38 76 -59t104 -21q56 0 101.5 27.5t71.5 77t26 113.5v45q-30 -57 -85 -89.5t-125 -32.5
q-78 0 -139.5 35.5t-96 99t-34.5 143.5q0 81 36 144.5t99.5 99t142.5 35.5q80 0 143 -35.5zM443 91.5q46 26.5 72 74t26 107.5t-26 107.5t-72 74.5t-104 27q-59 0 -105 -27t-72 -74.5t-26 -107.5t26 -107.5t72 -74t105 -26.5q58 0 104 26.5zM260 646.5q-36 15.5 -57 42
t-21 58.5q0 17 11 28.5t27 11.5q15 0 26 -10.5t11 -25.5q0 -23 23 -39t58 -16q37 0 59.5 15.5t22.5 39.5q0 16 11 26t27 10t26.5 -11.5t10.5 -27.5q-2 -51 -47.5 -84t-109.5 -33q-42 0 -78 15.5z" />
    <glyph glyph-name="gcaron" unicode="&#x1e7;" 
d="M482 516.5q63 -35.5 99 -99t36 -144.5v-204q0 -80 -35.5 -145t-98.5 -102.5t-142 -37.5q-77 0 -137 29t-101 81q-9 10 -9 23q0 15 14 26q10 7 22 7q9 0 18 -4.5t14 -11.5q30 -38 76 -59t104 -21q56 0 101.5 27.5t71.5 77t26 113.5v45q-30 -57 -85 -89.5t-125 -32.5
q-78 0 -139.5 35.5t-96 99t-34.5 143.5q0 81 36 144.5t99.5 99t142.5 35.5q80 0 143 -35.5zM443 91.5q46 26.5 72 74t26 107.5t-26 107.5t-72 74.5t-104 27q-59 0 -105 -27t-72 -74.5t-26 -107.5t26 -107.5t72 -74t105 -26.5q58 0 104 26.5zM320 644l-118 78q-19 13 -19 33
q0 13 8.5 21t22.5 8q15 0 32 -11l93 -63l93 62q17 12 33 12q14 0 22 -8.5t8 -20.5q0 -20 -19 -33l-117 -78q-7 -5 -20 -5t-19 5z" />
    <glyph glyph-name="gcircumflex" unicode="&#x11d;" 
d="M482 516.5q63 -35.5 99 -99t36 -144.5v-204q0 -80 -35.5 -145t-98.5 -102.5t-142 -37.5q-77 0 -137 29t-101 81q-9 10 -9 23q0 15 14 26q10 7 22 7q9 0 18 -4.5t14 -11.5q30 -38 76 -59t104 -21q56 0 101.5 27.5t71.5 77t26 113.5v45q-30 -57 -85 -89.5t-125 -32.5
q-78 0 -139.5 35.5t-96 99t-34.5 143.5q0 81 36 144.5t99.5 99t142.5 35.5q80 0 143 -35.5zM443 91.5q46 26.5 72 74t26 107.5t-26 107.5t-72 74.5t-104 27q-59 0 -105 -27t-72 -74.5t-26 -107.5t26 -107.5t72 -74t105 -26.5q58 0 104 26.5zM194.5 643.5
q-11.5 9.5 -11.5 25.5q0 21 19 34l118 78q8 5 19 5q10 0 20 -5l117 -78q19 -13 19 -34q0 -15 -11 -25t-28 -10q-11 0 -24 8l-93 64l-93 -64q-11 -8 -23 -8q-17 0 -28.5 9.5z" />
    <glyph glyph-name="gcommaaccent" unicode="&#x123;" 
d="M482 516.5q63 -35.5 99 -99t36 -144.5v-204q0 -80 -35.5 -145t-98.5 -102.5t-142 -37.5q-77 0 -137 29t-101 81q-9 10 -9 23q0 15 14 26q10 7 22 7q9 0 18 -4.5t14 -11.5q30 -38 76 -59t104 -21q56 0 101.5 27.5t71.5 77t26 113.5v45q-30 -57 -85 -89.5t-125 -32.5
q-78 0 -139.5 35.5t-96 99t-34.5 143.5q0 81 36 144.5t99.5 99t142.5 35.5q80 0 143 -35.5zM443 91.5q46 26.5 72 74t26 107.5t-26 107.5t-72 74.5t-104 27q-59 0 -105 -27t-72 -74.5t-26 -107.5t26 -107.5t72 -74t105 -26.5q58 0 104 26.5zM294 672q-18 24 -18 67
q0 37 14 78t36.5 68t44.5 27q21 0 21 -20q0 -9 -4 -17.5t-13 -19.5q-10 -15 -15 -26t-5 -25q0 -16 6 -27t18 -25t17.5 -24t5.5 -25q0 -25 -16.5 -40t-41.5 -15q-32 0 -50 24z" />
    <glyph glyph-name="gdotaccent" unicode="&#x121;" 
d="M482 516.5q63 -35.5 99 -99t36 -144.5v-204q0 -80 -35.5 -145t-98.5 -102.5t-142 -37.5q-77 0 -137 29t-101 81q-9 10 -9 23q0 15 14 26q10 7 22 7q9 0 18 -4.5t14 -11.5q30 -38 76 -59t104 -21q56 0 101.5 27.5t71.5 77t26 113.5v45q-30 -57 -85 -89.5t-125 -32.5
q-78 0 -139.5 35.5t-96 99t-34.5 143.5q0 81 36 144.5t99.5 99t142.5 35.5q80 0 143 -35.5zM443 91.5q46 26.5 72 74t26 107.5t-26 107.5t-72 74.5t-104 27q-59 0 -105 -27t-72 -74.5t-26 -107.5t26 -107.5t72 -74t105 -26.5q58 0 104 26.5zM299.5 667q-15.5 16 -15.5 39
q0 24 16 39t39 15q22 0 38 -15t16 -39q0 -23 -16 -39t-39 -16t-38.5 16z" />
    <glyph glyph-name="h" unicode="h" 
d="M476.5 523q56.5 -30 88.5 -87.5t32 -137.5v-260q0 -16 -11 -27t-27 -11q-17 0 -28 11t-11 27v260q0 89 -49.5 135.5t-129.5 46.5q-49 0 -88.5 -19t-62.5 -52.5t-23 -74.5v-296q0 -17 -10.5 -27.5t-27.5 -10.5t-28 10.5t-11 27.5v704q0 17 11 28t28 11t27.5 -11t10.5 -28
v-268q33 37 80 58t102 21q71 0 127.5 -30z" />
    <glyph glyph-name="hbar" unicode="&#x127;" 
d="M476.5 523q56.5 -30 88.5 -87.5t32 -137.5v-260q0 -16 -11 -27t-27 -11q-17 0 -28 11t-11 27v260q0 89 -49.5 135.5t-129.5 46.5q-49 0 -88.5 -19t-62.5 -52.5t-23 -74.5v-296q0 -17 -10.5 -27.5t-27.5 -10.5t-28 10.5t-11 27.5v575h-56q-17 0 -27 9t-10 25t10 25t27 9
h56v61q0 17 11 28t28 11t27.5 -11t10.5 -28v-61h187q16 0 26.5 -9.5t10.5 -24.5t-10.5 -24.5t-26.5 -9.5h-187v-139q33 37 80 58t102 21q71 0 127.5 -30z" />
    <glyph glyph-name="hcircumflex" unicode="&#x125;" 
d="M476.5 523q56.5 -30 88.5 -87.5t32 -137.5v-260q0 -16 -11 -27t-27 -11q-17 0 -28 11t-11 27v260q0 89 -49.5 135.5t-129.5 46.5q-49 0 -88.5 -19t-62.5 -52.5t-23 -74.5v-296q0 -17 -10.5 -27.5t-27.5 -10.5t-28 10.5t-11 27.5v704q0 17 11 28t28 11t27.5 -11t10.5 -28
v-268q33 37 80 58t102 21q71 0 127.5 -30zM-15.5 877.5q-11.5 9.5 -11.5 25.5q0 21 19 34l118 78q8 5 19 5q10 0 20 -5l117 -78q19 -13 19 -34q0 -15 -11 -25t-28 -10q-11 0 -24 8l-93 64l-93 -64q-11 -8 -23 -8q-17 0 -28.5 9.5z" />
    <glyph glyph-name="i" unicode="i" horiz-adv-x="289" 
d="M117 11q-11 11 -11 28v469q0 17 11 28t28 11t27.5 -11t10.5 -28v-469q0 -17 -10.5 -28t-27.5 -11t-28 11zM105.5 667q-15.5 16 -15.5 39q0 24 16 39t39 15q22 0 38 -15t16 -39q0 -23 -16 -39t-39 -16t-38.5 16z" />
    <glyph glyph-name="dotlessi" unicode="&#x131;" horiz-adv-x="289" 
d="M117 11q-11 11 -11 28v469q0 17 11 28t28 11t27.5 -11t10.5 -28v-469q0 -17 -10.5 -28t-27.5 -11t-28 11z" />
    <glyph glyph-name="iacute" unicode="&#xed;" horiz-adv-x="289" 
d="M117 11q-11 11 -11 28v469q0 17 11 28t28 11t27.5 -11t10.5 -28v-469q0 -17 -10.5 -28t-27.5 -11t-28 11zM110 641.5q-11 11.5 -11 27.5t9 26l113 113q11 11 27 11q17 0 28 -11.5t11 -28.5q0 -16 -11 -26l-112 -113q-10 -10 -26 -10q-17 0 -28 11.5z" />
    <glyph glyph-name="ibreve" unicode="&#x12d;" horiz-adv-x="289" 
d="M73.5 646.5q-32.5 15.5 -51.5 42t-19 58.5q0 17 10 28.5t24 11.5t24 -10.5t10 -25.5q0 -23 20.5 -39t52.5 -16q34 0 53.5 15.5t19.5 39.5q0 16 10.5 26t24.5 10t23.5 -11.5t9.5 -27.5q-2 -51 -43 -84t-98 -33q-38 0 -70.5 15.5zM117 11q-11 11 -11 28v469q0 17 11 28
t28 11t27.5 -11t10.5 -28v-469q0 -17 -10.5 -28t-27.5 -11t-28 11z" />
    <glyph glyph-name="icircumflex" unicode="&#xee;" horiz-adv-x="289" 
d="M14.5 644q-10.5 10 -10.5 25q0 20 17 34l107 78q7 5 17 5q8 0 18 -5l105 -78q17 -13 17 -34q0 -15 -9.5 -25t-25.5 -10q-9 0 -22 8l-83 64l-84 -64q-10 -8 -21 -8q-15 0 -25.5 10zM117 11q-11 11 -11 28v469q0 17 11 28t28 11t27.5 -11t10.5 -28v-469q0 -17 -10.5 -28
t-27.5 -11t-28 11z" />
    <glyph glyph-name="uni0209" unicode="&#x209;" horiz-adv-x="289" 
d="M117 11q-11 11 -11 28v469q0 17 11 28t28 11t27.5 -11t10.5 -28v-469q0 -17 -10.5 -28t-27.5 -11t-28 11zM73 643l-61 129q-3 8 -3 14q0 16 11 27.5t28 11.5q12 0 22 -7t13 -17l44 -136q2 -8 2 -12q0 -13 -8.5 -21t-19.5 -8q-19 0 -28 19zM224 643l-61 129q-3 8 -3 14
q0 16 11.5 27.5t28.5 11.5q12 0 22 -7t14 -17l42 -136q2 -4 2 -12q0 -13 -8.5 -21t-19.5 -8q-19 0 -28 19z" />
    <glyph glyph-name="idieresis" unicode="&#xef;" horiz-adv-x="289" 
d="M10.5 686.5q-16.5 16.5 -16.5 39.5q0 22 16.5 38t39.5 16q22 0 38.5 -16t16.5 -38q0 -23 -16 -39.5t-39 -16.5t-39.5 16.5zM200 686.5q-16 16.5 -16 39.5q0 22 16 38t39 16q22 0 38.5 -16t16.5 -38q0 -23 -16 -39.5t-39 -16.5t-39 16.5zM117 11q-11 11 -11 28v469
q0 17 11 28t28 11t27.5 -11t10.5 -28v-469q0 -17 -10.5 -28t-27.5 -11t-28 11z" />
    <glyph glyph-name="i.loclTRK" horiz-adv-x="289" 
d="M117 11q-11 11 -11 28v469q0 17 11 28t28 11t27.5 -11t10.5 -28v-469q0 -17 -10.5 -28t-27.5 -11t-28 11zM105.5 667q-15.5 16 -15.5 39q0 24 16 39t39 15q22 0 38 -15t16 -39q0 -23 -16 -39t-39 -16t-38.5 16z" />
    <glyph glyph-name="uni1ECB" unicode="&#x1ecb;" horiz-adv-x="289" 
d="M117 11q-11 11 -11 28v469q0 17 11 28t28 11t27.5 -11t10.5 -28v-469q0 -17 -10.5 -28t-27.5 -11t-28 11zM105.5 667q-15.5 16 -15.5 39q0 24 16 39t39 15q22 0 38 -15t16 -39q0 -23 -16 -39t-39 -16t-38.5 16zM105.5 -193q-15.5 16 -15.5 39q0 24 16 39t39 15
q22 0 38 -15t16 -39q0 -23 -16 -39t-39 -16t-38.5 16z" />
    <glyph glyph-name="igrave" unicode="&#xec;" horiz-adv-x="289" 
d="M117 11q-11 11 -11 28v469q0 17 11 28t28 11t27.5 -11t10.5 -28v-469q0 -17 -10.5 -28t-27.5 -11t-28 11zM118 647l-113 112q-10 10 -10 27t11 28.5t27 11.5t28 -12l112 -113q10 -9 10 -25q0 -17 -11 -28.5t-28 -11.5q-15 0 -26 11z" />
    <glyph glyph-name="uni1EC9" unicode="&#x1ec9;" horiz-adv-x="289" 
d="M117 11q-11 11 -11 28v469q0 17 11 28t28 11t27.5 -11t10.5 -28v-469q0 -17 -10.5 -28t-27.5 -11t-28 11zM118.5 608.5q-10.5 10.5 -10.5 25.5v28q0 32 32 39l25 5q41 10 41 44q0 22 -14 34t-36 12q-23 0 -44 -16q-9 -9 -25 -9q-13 0 -22.5 9t-9.5 23q0 17 12 27
q39 31 88 31q51 0 84 -29.5t33 -76.5q0 -44 -28 -68.5t-73 -31.5l8 -13q0 -20 -10 -32t-25 -12t-25.5 10.5z" />
    <glyph glyph-name="uni020B" unicode="&#x20b;" horiz-adv-x="289" 
d="M242.5 753q41.5 -33 43.5 -84q0 -16 -10 -27.5t-24 -11.5t-24 10t-10 26q0 24 -20 39.5t-54 15.5q-31 0 -52 -16t-21 -39q0 -16 -9.5 -26t-23.5 -10q-15 0 -24.5 11.5t-9.5 28.5q0 32 19 58.5t51 42t70 15.5q57 0 98.5 -33zM117 11q-11 11 -11 28v469q0 17 11 28t28 11
t27.5 -11t10.5 -28v-469q0 -17 -10.5 -28t-27.5 -11t-28 11z" />
    <glyph glyph-name="ij" unicode="&#x133;" horiz-adv-x="574" 
d="M117 11q-11 11 -11 28v469q0 17 11 28t28 11t27.5 -11t10.5 -28v-469q0 -17 -10.5 -28t-27.5 -11t-28 11zM105.5 667q-15.5 16 -15.5 39q0 24 16 39t39 15q22 0 38 -15t16 -39q0 -23 -16 -39t-39 -16t-38.5 16zM206 -223q-11 11 -11 28t11 28t28 11q69 0 113 44t44 112
v508q0 17 10.5 28t27.5 11t28 -11t11 -28v-508q0 -68 -30 -121t-83 -83t-121 -30q-17 0 -28 11zM389.5 667q-15.5 16 -15.5 39q0 24 16 39t39 15q22 0 38 -15t16 -39q0 -23 -16 -39t-39 -16t-38.5 16z" />
    <glyph glyph-name="imacron" unicode="&#x12b;" horiz-adv-x="289" 
d="M19 666q-9 10 -9 26t9 26t22 10h207q13 0 22.5 -10t9.5 -26t-9.5 -26t-22.5 -10h-207q-13 0 -22 10zM117 11q-11 11 -11 28v469q0 17 11 28t28 11t27.5 -11t10.5 -28v-469q0 -17 -10.5 -28t-27.5 -11t-28 11z" />
    <glyph glyph-name="iogonek" unicode="&#x12f;" horiz-adv-x="289" 
d="M105.5 667q-15.5 16 -15.5 39q0 24 16 39t39 15q22 0 38 -15t16 -39q0 -23 -16 -39t-39 -16t-38.5 16zM251 -156.5q11 -11.5 11 -27.5q0 -18 -13 -31l-40 -26q-30 -21 -64 -21q-48 0 -82.5 34.5t-34.5 82.5q0 55 49 96q26 19 34 39q7 10 14 15q-19 10 -19 34v469
q0 17 11 28t28 11t27.5 -11t10.5 -28v-469q0 -11 -5 -20t-13 -14q17 -10 19 -33q0 -40 -62 -85q-16 -12 -16 -32q0 -17 11.5 -28t27.5 -11q12 0 21 6l34 25q11 8 23 8q17 0 28 -11.5z" />
    <glyph glyph-name="itilde" unicode="&#x129;" horiz-adv-x="289" 
d="M117 11q-11 11 -11 28v469q0 17 11 28t28 11t27.5 -11t10.5 -28v-469q0 -17 -10.5 -28t-27.5 -11t-28 11zM131 679q-16 15 -25.5 21t-19.5 6q-11 0 -19.5 -9t-18.5 -28q-13 -21 -32 -21q-15 0 -24 9t-9 22q0 9 4 17q19 39 42 56.5t53 17.5q26 0 41.5 -9.5t37.5 -28.5
q16 -14 24.5 -19t16.5 -5q7 0 13 5.5t12 18.5q5 11 15 17.5t20 6.5q4 0 10 -2q24 -10 24 -30q0 -9 -4 -16q-17 -35 -37 -50.5t-46 -15.5q-41 0 -78 37z" />
    <glyph glyph-name="j" unicode="j" horiz-adv-x="285" 
d="M-83 -223q-11 11 -11 28t11 28t28 11q69 0 113 44t44 112v508q0 17 10.5 28t27.5 11t28 -11t11 -28v-508q0 -68 -30 -121t-83 -83t-121 -30q-17 0 -28 11zM100.5 667q-15.5 16 -15.5 39q0 24 16 39t39 15q22 0 38 -15t16 -39q0 -23 -16 -39t-39 -16t-38.5 16z" />
    <glyph glyph-name="uni0237" unicode="&#x237;" horiz-adv-x="285" 
d="M-83 -223q-11 11 -11 28t11 28t28 11q69 0 113 44t44 112v508q0 17 10.5 28t27.5 11t28 -11t11 -28v-508q0 -68 -30 -121t-83 -83t-121 -30q-17 0 -28 11z" />
    <glyph glyph-name="jcircumflex" unicode="&#x135;" horiz-adv-x="285" 
d="M9.5 644q-10.5 10 -10.5 25q0 20 17 34l107 78q7 5 17 5q8 0 18 -5l105 -78q17 -13 17 -34q0 -15 -9.5 -25t-25.5 -10q-9 0 -22 8l-83 64l-84 -64q-10 -8 -21 -8q-15 0 -25.5 10zM-83 -223q-11 11 -11 28t11 28t28 11q69 0 113 44t44 112v508q0 17 10.5 28t27.5 11
t28 -11t11 -28v-508q0 -68 -30 -121t-83 -83t-121 -30q-17 0 -28 11z" />
    <glyph glyph-name="k" unicode="k" horiz-adv-x="572" 
d="M512 32q0 -15 -14 -27q-12 -9 -24 -9q-16 0 -27 14l-206 253l-75 -68v-157q0 -17 -10.5 -27.5t-27.5 -10.5t-27.5 10.5t-10.5 27.5v705q0 17 10.5 27.5t27.5 10.5t27.5 -10.5t10.5 -27.5v-455l282 255q11 10 24 10q15 0 25 -12q11 -13 11 -24q0 -14 -13 -25l-200 -181
l208 -256q9 -10 9 -23z" />
    <glyph glyph-name="kcommaaccent" unicode="&#x137;" horiz-adv-x="572" 
d="M512 32q0 -15 -14 -27q-12 -9 -24 -9q-16 0 -27 14l-206 253l-75 -68v-157q0 -17 -10.5 -27.5t-27.5 -10.5t-27.5 10.5t-10.5 27.5v705q0 17 10.5 27.5t27.5 10.5t27.5 -10.5t10.5 -27.5v-455l282 255q11 10 24 10q15 0 25 -12q11 -13 11 -24q0 -14 -13 -25l-200 -181
l208 -256q9 -10 9 -23zM205.5 -218q-38.5 20 -38.5 51q0 13 8 20.5t21 7.5q11 0 19 -4t19 -13q12 -11 25 -17.5t34 -6.5q58 0 58 43q0 19 -17 30t-52 11q-21 0 -33 7t-12 20q0 14 12 22t35 8q55 0 90.5 -27.5t35.5 -70.5q0 -46 -35 -73.5t-87 -27.5q-44 0 -82.5 20z" />
    <glyph glyph-name="kgreenlandic" unicode="&#x138;" horiz-adv-x="572" 
d="M512 32q0 -15 -14 -27q-12 -9 -24 -9q-16 0 -27 14l-206 253l-75 -68v-157q0 -17 -10.5 -27.5t-27.5 -10.5t-27.5 10.5t-10.5 27.5v471q0 17 10.5 27.5t27.5 10.5t27.5 -10.5t10.5 -27.5v-221l282 255q11 10 24 10q15 0 25 -12q11 -13 11 -24q0 -14 -13 -25l-200 -181
l208 -256q9 -10 9 -23z" />
    <glyph glyph-name="l" unicode="l" horiz-adv-x="282" 
d="M108.5 48.5q-38.5 48.5 -38.5 124.5v570q0 17 11 27.5t27 10.5q17 0 27.5 -10.5t10.5 -27.5v-570q0 -43 17.5 -70t44.5 -27h25q15 0 24 -10.5t9 -27.5t-12.5 -27.5t-32.5 -10.5h-13q-61 0 -99.5 48.5z" />
    <glyph glyph-name="lacute" unicode="&#x13a;" horiz-adv-x="282" 
d="M73.5 767.5q-11.5 11.5 -11.5 27.5t9 26l113 113q11 11 27 11q17 0 28.5 -11.5t11.5 -28.5q0 -15 -12 -26l-112 -113q-10 -10 -26 -10t-27.5 11.5zM108.5 48.5q-38.5 48.5 -38.5 124.5v470q0 17 11 27.5t27 10.5q17 0 27.5 -10.5t10.5 -27.5v-470q0 -43 17.5 -70
t44.5 -27h25q15 0 24 -10.5t9 -27.5t-12.5 -27.5t-32.5 -10.5h-13q-61 0 -99.5 48.5z" />
    <glyph glyph-name="lcaron" unicode="&#x13e;" horiz-adv-x="360" 
d="M108.5 48.5q-38.5 48.5 -38.5 124.5v570q0 17 11 27.5t27 10.5q17 0 27.5 -10.5t10.5 -27.5v-570q0 -43 17.5 -70t44.5 -27h25q15 0 24 -10.5t9 -27.5t-12.5 -27.5t-32.5 -10.5h-13q-61 0 -99.5 48.5zM249 529.5q-6 5.5 -6 15.5q0 12 16 37q13 19 21 36.5t10 39.5
q1 13 -1 22.5t-7 22.5q-3 8 -6 19t-3 23q0 20 12.5 29.5t33.5 9.5q25 0 39 -21t14 -54q0 -7 -2 -23q-5 -34 -24 -72t-42 -64t-39 -26q-10 0 -16 5.5z" />
    <glyph glyph-name="lcommaaccent" unicode="&#x13c;" horiz-adv-x="282" 
d="M108.5 48.5q-38.5 48.5 -38.5 124.5v570q0 17 11 27.5t27 10.5q17 0 27.5 -10.5t10.5 -27.5v-570q0 -43 17.5 -70t44.5 -27h25q15 0 24 -10.5t9 -27.5t-12.5 -27.5t-32.5 -10.5h-13q-61 0 -99.5 48.5zM132.5 -218q-38.5 20 -38.5 51q0 13 8 20.5t21 7.5q11 0 19 -4
t19 -13q12 -11 25 -17.5t34 -6.5q58 0 58 43q0 19 -17 30t-52 11q-21 0 -33 7t-12 20q0 14 12 22t35 8q55 0 90.5 -27.5t35.5 -70.5q0 -46 -35 -73.5t-87 -27.5q-44 0 -82.5 20z" />
    <glyph glyph-name="ldot" unicode="&#x140;" horiz-adv-x="352" 
d="M108.5 48.5q-38.5 48.5 -38.5 124.5v570q0 17 11 27.5t27 10.5q17 0 27.5 -10.5t10.5 -27.5v-570q0 -43 17.5 -70t44.5 -27h25q15 0 24 -10.5t9 -27.5t-12.5 -27.5t-32.5 -10.5h-13q-61 0 -99.5 48.5zM250.5 330q-17.5 17 -17.5 41q0 25 17 42t42 17q24 0 40.5 -17.5
t16.5 -41.5t-16.5 -41t-40.5 -17t-41.5 17z" />
    <glyph glyph-name="lslash" unicode="&#x142;" horiz-adv-x="352" 
d="M128.5 11.5q-11.5 11.5 -11.5 27.5v260l-39 -39q-11 -11 -26 -11q-16 0 -28 11t-12 28q0 16 11 27l94 93v335q0 17 11.5 28t27.5 11t27.5 -11.5t11.5 -27.5v-258l51 51q13 11 27 11q16 0 27.5 -11.5t11.5 -27.5t-11 -27l-106 -105v-298h39q17 0 28 -11t11 -28
q0 -16 -11 -27.5t-28 -11.5h-78q-16 0 -27.5 11.5z" />
    <glyph glyph-name="m" unicode="m" horiz-adv-x="947" 
d="M770.5 525q45.5 -28 71 -79.5t25.5 -119.5v-288q0 -17 -10.5 -27.5t-27.5 -10.5t-28 10.5t-11 27.5v288q0 71 -36.5 112.5t-95.5 41.5q-63 0 -102 -42t-38 -110v-2v-288q0 -17 -10.5 -27.5t-27.5 -10.5t-28 10.5t-11 27.5v288q0 71 -36.5 112.5t-95.5 41.5
q-62 0 -102 -41t-40 -105v-296q0 -17 -10.5 -27.5t-27.5 -10.5t-28 10.5t-11 27.5v470q0 17 11 28t28 11t27.5 -11t10.5 -28v-22q28 32 66.5 49.5t83.5 17.5q55 0 99 -25t70 -70q29 45 75.5 70t104.5 25q59 0 104.5 -28z" />
    <glyph glyph-name="n" unicode="n" 
d="M476.5 523q56.5 -30 88.5 -87.5t32 -137.5v-260q0 -16 -11 -27t-27 -11q-17 0 -28 11t-11 27v260q0 89 -49.5 135.5t-129.5 46.5q-49 0 -88.5 -19t-62.5 -52.5t-23 -74.5v-296q0 -17 -10.5 -27.5t-27.5 -10.5t-28 10.5t-11 27.5v470q0 17 11 28t28 11t27.5 -11t10.5 -28
v-34q33 37 80 58t102 21q71 0 127.5 -30z" />
    <glyph glyph-name="nacute" unicode="&#x144;" 
d="M476.5 523q56.5 -30 88.5 -87.5t32 -137.5v-260q0 -16 -11 -27t-27 -11q-17 0 -28 11t-11 27v260q0 89 -49.5 135.5t-129.5 46.5q-49 0 -88.5 -19t-62.5 -52.5t-23 -74.5v-296q0 -17 -10.5 -27.5t-27.5 -10.5t-28 10.5t-11 27.5v470q0 17 11 28t28 11t27.5 -11t10.5 -28
v-34q33 37 80 58t102 21q71 0 127.5 -30zM304 641.5q-11 11.5 -11 27.5t9 26l113 113q11 11 27 11q17 0 28 -11.5t11 -28.5q0 -16 -11 -26l-112 -113q-10 -10 -26 -10q-17 0 -28 11.5z" />
    <glyph glyph-name="ncaron" unicode="&#x148;" 
d="M476.5 523q56.5 -30 88.5 -87.5t32 -137.5v-260q0 -16 -11 -27t-27 -11q-17 0 -28 11t-11 27v260q0 89 -49.5 135.5t-129.5 46.5q-49 0 -88.5 -19t-62.5 -52.5t-23 -74.5v-296q0 -17 -10.5 -27.5t-27.5 -10.5t-28 10.5t-11 27.5v470q0 17 11 28t28 11t27.5 -11t10.5 -28
v-34q33 37 80 58t102 21q71 0 127.5 -30zM320 644l-118 78q-19 13 -19 33q0 13 8.5 21t22.5 8q15 0 32 -11l93 -63l93 62q17 12 33 12q14 0 22 -8.5t8 -20.5q0 -20 -19 -33l-117 -78q-7 -5 -20 -5t-19 5z" />
    <glyph glyph-name="ncommaaccent" unicode="&#x146;" 
d="M476.5 523q56.5 -30 88.5 -87.5t32 -137.5v-260q0 -16 -11 -27t-27 -11q-17 0 -28 11t-11 27v260q0 89 -49.5 135.5t-129.5 46.5q-49 0 -88.5 -19t-62.5 -52.5t-23 -74.5v-296q0 -17 -10.5 -27.5t-27.5 -10.5t-28 10.5t-11 27.5v470q0 17 11 28t28 11t27.5 -11t10.5 -28
v-34q33 37 80 58t102 21q71 0 127.5 -30zM262.5 -218q-38.5 20 -38.5 51q0 13 8 20.5t21 7.5q11 0 19 -4t19 -13q12 -11 25 -17.5t34 -6.5q58 0 58 43q0 19 -17 30t-52 11q-21 0 -33 7t-12 20q0 14 12 22t35 8q55 0 90.5 -27.5t35.5 -70.5q0 -46 -35 -73.5t-87 -27.5
q-44 0 -82.5 20z" />
    <glyph glyph-name="eng" unicode="&#x14b;" horiz-adv-x="673" 
d="M477.5 520.5q56.5 -32.5 88 -90.5t31.5 -132v-171q0 -105 -27 -179t-75.5 -111.5t-111.5 -37.5q-67 0 -114 28.5t-63 78.5q-1 3 -1 10q0 11 6 18.5t18 8.5q11 2 22.5 -5t17.5 -20q11 -24 39.5 -37.5t70.5 -13.5q66 0 103.5 65t37.5 195v171q0 52 -23 93.5t-63.5 65
t-92.5 23.5q-77 0 -125.5 -41t-48.5 -105v-296q0 -17 -10.5 -27.5t-27.5 -10.5t-28 10.5t-11 27.5v470q0 17 11 28t28 11t27.5 -11t10.5 -28v-40q31 40 78 62.5t104 22.5q72 0 128.5 -32.5z" />
    <glyph glyph-name="ntilde" unicode="&#xf1;" 
d="M476.5 523q56.5 -30 88.5 -87.5t32 -137.5v-260q0 -16 -11 -27t-27 -11q-17 0 -28 11t-11 27v260q0 89 -49.5 135.5t-129.5 46.5q-49 0 -88.5 -19t-62.5 -52.5t-23 -74.5v-296q0 -17 -10.5 -27.5t-27.5 -10.5t-28 10.5t-11 27.5v470q0 17 11 28t28 11t27.5 -11t10.5 -28
v-34q33 37 80 58t102 21q71 0 127.5 -30zM394 636q-22 9 -47 24q-21 13 -34 18t-26 5q-37 0 -66 -35q-6 -9 -15 -14t-18 -5t-17 5q-7 4 -11.5 11.5t-4.5 15.5q0 12 7 22q25 32 58 49.5t69 17.5q27 0 47 -8t46 -24q23 -14 34.5 -19t26.5 -5q31 0 49 20q15 17 31 17q8 0 16 -5
q18 -9 18 -28q0 -11 -8 -22q-40 -49 -105 -49q-28 0 -50 9z" />
    <glyph glyph-name="o" unicode="o" 
d="M196.5 31q-63.5 36 -99.5 99.5t-36 142.5t36 143t99.5 100t142.5 36t142 -36t99.5 -100t36.5 -143t-36 -142.5t-99.5 -99.5t-142.5 -36t-142.5 36zM443 92q46 27 72 74.5t26 106.5q0 60 -26 107.5t-72 74.5t-104 27q-57 0 -103.5 -27t-73 -74.5t-26.5 -107.5
q0 -59 26.5 -106.5t73 -74.5t103.5 -27q58 0 104 27z" />
    <glyph glyph-name="oacute" unicode="&#xf3;" 
d="M196.5 31q-63.5 36 -99.5 99.5t-36 142.5t36 143t99.5 100t142.5 36t142 -36t99.5 -100t36.5 -143t-36 -142.5t-99.5 -99.5t-142.5 -36t-142.5 36zM443 92q46 27 72 74.5t26 106.5q0 60 -26 107.5t-72 74.5t-104 27q-57 0 -103.5 -27t-73 -74.5t-26.5 -107.5
q0 -59 26.5 -106.5t73 -74.5t103.5 -27q58 0 104 27zM304 641.5q-11 11.5 -11 27.5t9 26l113 113q11 11 27 11q17 0 28 -11.5t11 -28.5q0 -16 -11 -26l-112 -113q-10 -10 -26 -10q-17 0 -28 11.5z" />
    <glyph glyph-name="obreve" unicode="&#x14f;" 
d="M196.5 31q-63.5 36 -99.5 99.5t-36 142.5t36 143t99.5 100t142.5 36t142 -36t99.5 -100t36.5 -143t-36 -142.5t-99.5 -99.5t-142.5 -36t-142.5 36zM443 92q46 27 72 74.5t26 106.5q0 60 -26 107.5t-72 74.5t-104 27q-57 0 -103.5 -27t-73 -74.5t-26.5 -107.5
q0 -59 26.5 -106.5t73 -74.5t103.5 -27q58 0 104 27zM260 646.5q-36 15.5 -57 42t-21 58.5q0 17 11 28.5t27 11.5q15 0 26 -10.5t11 -25.5q0 -23 23 -39t58 -16q37 0 59.5 15.5t22.5 39.5q0 16 11 26t27 10t26.5 -11.5t10.5 -27.5q-2 -51 -47.5 -84t-109.5 -33
q-42 0 -78 15.5z" />
    <glyph glyph-name="ocircumflex" unicode="&#xf4;" 
d="M196.5 31q-63.5 36 -99.5 99.5t-36 142.5t36 143t99.5 100t142.5 36t142 -36t99.5 -100t36.5 -143t-36 -142.5t-99.5 -99.5t-142.5 -36t-142.5 36zM443 92q46 27 72 74.5t26 106.5q0 60 -26 107.5t-72 74.5t-104 27q-57 0 -103.5 -27t-73 -74.5t-26.5 -107.5
q0 -59 26.5 -106.5t73 -74.5t103.5 -27q58 0 104 27zM194.5 643.5q-11.5 9.5 -11.5 25.5q0 21 19 34l118 78q8 5 19 5q10 0 20 -5l117 -78q19 -13 19 -34q0 -15 -11 -25t-28 -10q-11 0 -24 8l-93 64l-93 -64q-11 -8 -23 -8q-17 0 -28.5 9.5z" />
    <glyph glyph-name="uni1ED1" unicode="&#x1ed1;" 
d="M196.5 31q-63.5 36 -99.5 99.5t-36 142.5t36 143t99.5 100t142.5 36t142 -36t99.5 -100t36.5 -143t-36 -142.5t-99.5 -99.5t-142.5 -36t-142.5 36zM443 92q46 27 72 74.5t26 106.5q0 60 -26 107.5t-72 74.5t-104 27q-57 0 -103.5 -27t-73 -74.5t-26.5 -107.5
q0 -59 26.5 -106.5t73 -74.5t103.5 -27q58 0 104 27zM194.5 643.5q-11.5 9.5 -11.5 25.5q0 21 19 34l118 78q8 5 19 5q10 0 20 -5l117 -78q19 -13 19 -34q0 -15 -11 -25t-28 -10q-11 0 -24 8l-93 64l-93 -64q-11 -8 -23 -8q-17 0 -28.5 9.5zM400 810.5q-11 11.5 -11 27.5
t9 26l113 113q11 11 27 11q17 0 28 -11.5t11 -28.5q0 -16 -11 -26l-112 -113q-10 -10 -26 -10q-17 0 -28 11.5z" />
    <glyph glyph-name="uni1ED9" unicode="&#x1ed9;" 
d="M196.5 31q-63.5 36 -99.5 99.5t-36 142.5t36 143t99.5 100t142.5 36t142 -36t99.5 -100t36.5 -143t-36 -142.5t-99.5 -99.5t-142.5 -36t-142.5 36zM443 92q46 27 72 74.5t26 106.5q0 60 -26 107.5t-72 74.5t-104 27q-57 0 -103.5 -27t-73 -74.5t-26.5 -107.5
q0 -59 26.5 -106.5t73 -74.5t103.5 -27q58 0 104 27zM194.5 643.5q-11.5 9.5 -11.5 25.5q0 21 19 34l118 78q8 5 19 5q10 0 20 -5l117 -78q19 -13 19 -34q0 -15 -11 -25t-28 -10q-11 0 -24 8l-93 64l-93 -64q-11 -8 -23 -8q-17 0 -28.5 9.5zM299.5 -193q-15.5 16 -15.5 39
q0 24 16 39t39 15q22 0 38 -15t16 -39q0 -23 -16 -39t-39 -16t-38.5 16z" />
    <glyph glyph-name="uni1ED3" unicode="&#x1ed3;" 
d="M196.5 31q-63.5 36 -99.5 99.5t-36 142.5t36 143t99.5 100t142.5 36t142 -36t99.5 -100t36.5 -143t-36 -142.5t-99.5 -99.5t-142.5 -36t-142.5 36zM443 92q46 27 72 74.5t26 106.5q0 60 -26 107.5t-72 74.5t-104 27q-57 0 -103.5 -27t-73 -74.5t-26.5 -107.5
q0 -59 26.5 -106.5t73 -74.5t103.5 -27q58 0 104 27zM194.5 643.5q-11.5 9.5 -11.5 25.5q0 21 19 34l118 78q8 5 19 5q10 0 20 -5l117 -78q19 -13 19 -34q0 -15 -11 -25t-28 -10q-11 0 -24 8l-93 64l-93 -64q-11 -8 -23 -8q-17 0 -28.5 9.5zM408 816l-113 112q-10 10 -10 27
t11 28.5t27 11.5t28 -12l112 -113q10 -9 10 -25q0 -17 -11 -28.5t-28 -11.5q-15 0 -26 11z" />
    <glyph glyph-name="uni1ED5" unicode="&#x1ed5;" 
d="M196.5 31q-63.5 36 -99.5 99.5t-36 142.5t36 143t99.5 100t142.5 36t142 -36t99.5 -100t36.5 -143t-36 -142.5t-99.5 -99.5t-142.5 -36t-142.5 36zM443 92q46 27 72 74.5t26 106.5q0 60 -26 107.5t-72 74.5t-104 27q-57 0 -103.5 -27t-73 -74.5t-26.5 -107.5
q0 -59 26.5 -106.5t73 -74.5t103.5 -27q58 0 104 27zM197.5 643.5q-11.5 9.5 -11.5 25.5q0 21 19 34l118 78q8 5 19 5q10 0 20 -5l117 -78q19 -13 19 -34q0 -15 -11 -25t-28 -10q-11 0 -24 8l-93 64l-93 -64q-11 -8 -23 -8q-17 0 -28.5 9.5zM411.5 777.5
q-10.5 10.5 -10.5 25.5v28q0 32 32 39l25 5q41 10 41 44q0 22 -14 34t-36 12q-23 0 -44 -16q-9 -9 -25 -9q-13 0 -22.5 9t-9.5 23q0 17 12 27q39 31 88 31q51 0 84 -29.5t33 -76.5q0 -44 -28 -68.5t-73 -31.5l8 -13q0 -20 -10 -32t-25 -12t-25.5 10.5z" />
    <glyph glyph-name="uni1ED7" unicode="&#x1ed7;" 
d="M196.5 31q-63.5 36 -99.5 99.5t-36 142.5t36 143t99.5 100t142.5 36t142 -36t99.5 -100t36.5 -143t-36 -142.5t-99.5 -99.5t-142.5 -36t-142.5 36zM443 92q46 27 72 74.5t26 106.5q0 60 -26 107.5t-72 74.5t-104 27q-57 0 -103.5 -27t-73 -74.5t-26.5 -107.5
q0 -59 26.5 -106.5t73 -74.5t103.5 -27q58 0 104 27zM196.5 643.5q-11.5 9.5 -11.5 25.5q0 21 19 34l118 78q8 5 19 5q10 0 20 -5l117 -78q19 -13 19 -34q0 -15 -11 -25t-28 -10q-11 0 -24 8l-93 64l-93 -64q-11 -8 -23 -8q-17 0 -28.5 9.5zM322 850q-16 15 -25.5 21
t-19.5 6q-11 0 -19.5 -9t-18.5 -28q-13 -21 -32 -21q-15 0 -24 9t-9 22q0 9 4 17q19 39 42 56.5t53 17.5q26 0 41.5 -9.5t37.5 -28.5q16 -14 24.5 -19t16.5 -5q7 0 13 5.5t12 18.5q5 11 15 17.5t20 6.5q4 0 10 -2q24 -10 24 -30q0 -9 -4 -16q-17 -35 -37 -50.5t-46 -15.5
q-41 0 -78 37z" />
    <glyph glyph-name="uni020D" unicode="&#x20d;" 
d="M196.5 31q-63.5 36 -99.5 99.5t-36 142.5t36 143t99.5 100t142.5 36t142 -36t99.5 -100t36.5 -143t-36 -142.5t-99.5 -99.5t-142.5 -36t-142.5 36zM443 92q46 27 72 74.5t26 106.5q0 60 -26 107.5t-72 74.5t-104 27q-57 0 -103.5 -27t-73 -74.5t-26.5 -107.5
q0 -59 26.5 -106.5t73 -74.5t103.5 -27q58 0 104 27zM267 643l-61 129q-3 8 -3 14q0 16 11 27.5t28 11.5q12 0 22 -7t13 -17l44 -136q2 -8 2 -12q0 -13 -8.5 -21t-19.5 -8q-19 0 -28 19zM418 643l-61 129q-3 8 -3 14q0 16 11.5 27.5t28.5 11.5q12 0 22 -7t14 -17l42 -136
q2 -4 2 -12q0 -13 -8.5 -21t-19.5 -8q-19 0 -28 19z" />
    <glyph glyph-name="odieresis" unicode="&#xf6;" 
d="M196.5 31q-63.5 36 -99.5 99.5t-36 142.5t36 143t99.5 100t142.5 36t142 -36t99.5 -100t36.5 -143t-36 -142.5t-99.5 -99.5t-142.5 -36t-142.5 36zM443 92q46 27 72 74.5t26 106.5q0 60 -26 107.5t-72 74.5t-104 27q-57 0 -103.5 -27t-73 -74.5t-26.5 -107.5
q0 -59 26.5 -106.5t73 -74.5t103.5 -27q58 0 104 27zM196 663q-16 16 -16 39t16 39t39 16t39 -16t16 -39t-16 -39t-39 -16t-39 16zM405 663q-16 16 -16 39t16 39t39 16t39 -16t16 -39t-16 -39t-39 -16t-39 16z" />
    <glyph glyph-name="uni022B" unicode="&#x22b;" 
d="M196.5 31q-63.5 36 -99.5 99.5t-36 142.5t36 143t99.5 100t142.5 36t142 -36t99.5 -100t36.5 -143t-36 -142.5t-99.5 -99.5t-142.5 -36t-142.5 36zM443 92q46 27 72 74.5t26 106.5q0 60 -26 107.5t-72 74.5t-104 27q-57 0 -103.5 -27t-73 -74.5t-26.5 -107.5
q0 -59 26.5 -106.5t73 -74.5t103.5 -27q58 0 104 27zM196 663q-16 16 -16 39t16 39t39 16t39 -16t16 -39t-16 -39t-39 -16t-39 16zM405 663q-16 16 -16 39t16 39t39 16t39 -16t16 -39t-16 -39t-39 -16t-39 16zM181 858q-11 10 -11 26t11 26t28 10h259q16 0 27.5 -10
t11.5 -26t-11.5 -26t-27.5 -10h-259q-17 0 -28 10z" />
    <glyph glyph-name="uni0231" unicode="&#x231;" 
d="M196.5 31q-63.5 36 -99.5 99.5t-36 142.5t36 143t99.5 100t142.5 36t142 -36t99.5 -100t36.5 -143t-36 -142.5t-99.5 -99.5t-142.5 -36t-142.5 36zM443 92q46 27 72 74.5t26 106.5q0 60 -26 107.5t-72 74.5t-104 27q-57 0 -103.5 -27t-73 -74.5t-26.5 -107.5
q0 -59 26.5 -106.5t73 -74.5t103.5 -27q58 0 104 27zM299.5 667q-15.5 16 -15.5 39q0 24 16 39t39 15q22 0 38 -15t16 -39q0 -23 -16 -39t-39 -16t-38.5 16zM181 834q-11 10 -11 26t11 26t28 10h259q16 0 27.5 -10t11.5 -26t-11.5 -26t-27.5 -10h-259q-17 0 -28 10z" />
    <glyph glyph-name="uni1ECD" unicode="&#x1ecd;" 
d="M196.5 31q-63.5 36 -99.5 99.5t-36 142.5t36 143t99.5 100t142.5 36t142 -36t99.5 -100t36.5 -143t-36 -142.5t-99.5 -99.5t-142.5 -36t-142.5 36zM443 92q46 27 72 74.5t26 106.5q0 60 -26 107.5t-72 74.5t-104 27q-57 0 -103.5 -27t-73 -74.5t-26.5 -107.5
q0 -59 26.5 -106.5t73 -74.5t103.5 -27q58 0 104 27zM299.5 -193q-15.5 16 -15.5 39q0 24 16 39t39 15q22 0 38 -15t16 -39q0 -23 -16 -39t-39 -16t-38.5 16z" />
    <glyph glyph-name="ograve" unicode="&#xf2;" 
d="M196.5 31q-63.5 36 -99.5 99.5t-36 142.5t36 143t99.5 100t142.5 36t142 -36t99.5 -100t36.5 -143t-36 -142.5t-99.5 -99.5t-142.5 -36t-142.5 36zM443 92q46 27 72 74.5t26 106.5q0 60 -26 107.5t-72 74.5t-104 27q-57 0 -103.5 -27t-73 -74.5t-26.5 -107.5
q0 -59 26.5 -106.5t73 -74.5t103.5 -27q58 0 104 27zM312 647l-113 112q-10 10 -10 27t11 28.5t27 11.5t28 -12l112 -113q10 -9 10 -25q0 -17 -11 -28.5t-28 -11.5q-15 0 -26 11z" />
    <glyph glyph-name="uni1ECF" unicode="&#x1ecf;" 
d="M196.5 31q-63.5 36 -99.5 99.5t-36 142.5t36 143t99.5 100t142.5 36t142 -36t99.5 -100t36.5 -143t-36 -142.5t-99.5 -99.5t-142.5 -36t-142.5 36zM443 92q46 27 72 74.5t26 106.5q0 60 -26 107.5t-72 74.5t-104 27q-57 0 -103.5 -27t-73 -74.5t-26.5 -107.5
q0 -59 26.5 -106.5t73 -74.5t103.5 -27q58 0 104 27zM312.5 608.5q-10.5 10.5 -10.5 25.5v28q0 32 32 39l25 5q41 10 41 44q0 22 -14 34t-36 12q-23 0 -44 -16q-9 -9 -25 -9q-13 0 -22.5 9t-9.5 23q0 17 12 27q39 31 88 31q51 0 84 -29.5t33 -76.5q0 -44 -28 -68.5
t-73 -31.5l8 -13q0 -20 -10 -32t-25 -12t-25.5 10.5z" />
    <glyph glyph-name="ohorn" unicode="&#x1a1;" 
d="M601.5 506.5q-19.5 -31.5 -52.5 -45.5q32 -38 50 -86t18 -102q0 -79 -36 -142.5t-99.5 -99.5t-142.5 -36t-142.5 36t-99.5 99.5t-36 142.5t36 143t99.5 100t142.5 36q68 0 127 -28h41q18 0 30.5 15.5t12.5 39.5v21q0 17 9.5 27.5t25.5 10.5q17 0 26.5 -12.5t9.5 -31.5
v-15q0 -41 -19.5 -72.5zM443 92q46 27 72 74.5t26 106.5q0 60 -26 107.5t-72 74.5t-104 27q-57 0 -103.5 -27t-73 -74.5t-26.5 -107.5q0 -59 26.5 -106.5t73 -74.5t103.5 -27q58 0 104 27z" />
    <glyph glyph-name="uni1EDB" unicode="&#x1edb;" 
d="M601.5 506.5q-19.5 -31.5 -52.5 -45.5q32 -38 50 -86t18 -102q0 -79 -36 -142.5t-99.5 -99.5t-142.5 -36t-142.5 36t-99.5 99.5t-36 142.5t36 143t99.5 100t142.5 36q68 0 127 -28h41q18 0 30.5 15.5t12.5 39.5v21q0 17 9.5 27.5t25.5 10.5q17 0 26.5 -12.5t9.5 -31.5
v-15q0 -41 -19.5 -72.5zM443 92q46 27 72 74.5t26 106.5q0 60 -26 107.5t-72 74.5t-104 27q-57 0 -103.5 -27t-73 -74.5t-26.5 -107.5q0 -59 26.5 -106.5t73 -74.5t103.5 -27q58 0 104 27zM304 641.5q-11 11.5 -11 27.5t9 26l113 113q11 11 27 11q17 0 28 -11.5t11 -28.5
q0 -16 -11 -26l-112 -113q-10 -10 -26 -10q-17 0 -28 11.5z" />
    <glyph glyph-name="uni1EE3" unicode="&#x1ee3;" 
d="M601.5 506.5q-19.5 -31.5 -52.5 -45.5q32 -38 50 -86t18 -102q0 -79 -36 -142.5t-99.5 -99.5t-142.5 -36t-142.5 36t-99.5 99.5t-36 142.5t36 143t99.5 100t142.5 36q68 0 127 -28h41q18 0 30.5 15.5t12.5 39.5v21q0 17 9.5 27.5t25.5 10.5q17 0 26.5 -12.5t9.5 -31.5
v-15q0 -41 -19.5 -72.5zM443 92q46 27 72 74.5t26 106.5q0 60 -26 107.5t-72 74.5t-104 27q-57 0 -103.5 -27t-73 -74.5t-26.5 -107.5q0 -59 26.5 -106.5t73 -74.5t103.5 -27q58 0 104 27zM299.5 -193q-15.5 16 -15.5 39q0 24 16 39t39 15q22 0 38 -15t16 -39q0 -23 -16 -39
t-39 -16t-38.5 16z" />
    <glyph glyph-name="uni1EDD" unicode="&#x1edd;" 
d="M601.5 506.5q-19.5 -31.5 -52.5 -45.5q32 -38 50 -86t18 -102q0 -79 -36 -142.5t-99.5 -99.5t-142.5 -36t-142.5 36t-99.5 99.5t-36 142.5t36 143t99.5 100t142.5 36q68 0 127 -28h41q18 0 30.5 15.5t12.5 39.5v21q0 17 9.5 27.5t25.5 10.5q17 0 26.5 -12.5t9.5 -31.5
v-15q0 -41 -19.5 -72.5zM443 92q46 27 72 74.5t26 106.5q0 60 -26 107.5t-72 74.5t-104 27q-57 0 -103.5 -27t-73 -74.5t-26.5 -107.5q0 -59 26.5 -106.5t73 -74.5t103.5 -27q58 0 104 27zM312 647l-113 112q-10 10 -10 27t11 28.5t27 11.5t28 -12l112 -113q10 -9 10 -25
q0 -17 -11 -28.5t-28 -11.5q-15 0 -26 11z" />
    <glyph glyph-name="uni1EDF" unicode="&#x1edf;" 
d="M601.5 506.5q-19.5 -31.5 -52.5 -45.5q32 -38 50 -86t18 -102q0 -79 -36 -142.5t-99.5 -99.5t-142.5 -36t-142.5 36t-99.5 99.5t-36 142.5t36 143t99.5 100t142.5 36q68 0 127 -28h41q18 0 30.5 15.5t12.5 39.5v21q0 17 9.5 27.5t25.5 10.5q17 0 26.5 -12.5t9.5 -31.5
v-15q0 -41 -19.5 -72.5zM443 92q46 27 72 74.5t26 106.5q0 60 -26 107.5t-72 74.5t-104 27q-57 0 -103.5 -27t-73 -74.5t-26.5 -107.5q0 -59 26.5 -106.5t73 -74.5t103.5 -27q58 0 104 27zM312.5 608.5q-10.5 10.5 -10.5 25.5v28q0 32 32 39l25 5q41 10 41 44q0 22 -14 34
t-36 12q-23 0 -44 -16q-9 -9 -25 -9q-13 0 -22.5 9t-9.5 23q0 17 12 27q39 31 88 31q51 0 84 -29.5t33 -76.5q0 -44 -28 -68.5t-73 -31.5l8 -13q0 -20 -10 -32t-25 -12t-25.5 10.5z" />
    <glyph glyph-name="uni1EE1" unicode="&#x1ee1;" 
d="M601.5 506.5q-19.5 -31.5 -52.5 -45.5q32 -38 50 -86t18 -102q0 -79 -36 -142.5t-99.5 -99.5t-142.5 -36t-142.5 36t-99.5 99.5t-36 142.5t36 143t99.5 100t142.5 36q68 0 127 -28h41q18 0 30.5 15.5t12.5 39.5v21q0 17 9.5 27.5t25.5 10.5q17 0 26.5 -12.5t9.5 -31.5
v-15q0 -41 -19.5 -72.5zM443 92q46 27 72 74.5t26 106.5q0 60 -26 107.5t-72 74.5t-104 27q-57 0 -103.5 -27t-73 -74.5t-26.5 -107.5q0 -59 26.5 -106.5t73 -74.5t103.5 -27q58 0 104 27zM394 636q-22 9 -47 24q-21 13 -34 18t-26 5q-37 0 -66 -35q-6 -9 -15 -14t-18 -5
t-17 5q-7 4 -11.5 11.5t-4.5 15.5q0 12 7 22q25 32 58 49.5t69 17.5q27 0 47 -8t46 -24q23 -14 34.5 -19t26.5 -5q31 0 49 20q15 17 31 17q8 0 16 -5q18 -9 18 -28q0 -11 -8 -22q-40 -49 -105 -49q-28 0 -50 9z" />
    <glyph glyph-name="ohungarumlaut" unicode="&#x151;" 
d="M196.5 31q-63.5 36 -99.5 99.5t-36 142.5t36 143t99.5 100t142.5 36t142 -36t99.5 -100t36.5 -143t-36 -142.5t-99.5 -99.5t-142.5 -36t-142.5 36zM443 92q46 27 72 74.5t26 106.5q0 60 -26 107.5t-72 74.5t-104 27q-57 0 -103.5 -27t-73 -74.5t-26.5 -107.5
q0 -59 26.5 -106.5t73 -74.5t103.5 -27q58 0 104 27zM241.5 632q-8.5 8 -8.5 21q0 8 2 12l42 136q4 11 14 17.5t22 6.5q17 0 28.5 -11.5t11.5 -27.5q0 -6 -3 -14l-61 -129q-10 -19 -28 -19q-11 0 -19.5 8zM392.5 632q-8.5 8 -8.5 21q0 4 2 12l44 136q3 10 13 17t22 7
q17 0 28 -11.5t11 -27.5q0 -6 -3 -14l-61 -129q-10 -19 -28 -19q-11 0 -19.5 8z" />
    <glyph glyph-name="uni020F" unicode="&#x20f;" 
d="M196.5 31q-63.5 36 -99.5 99.5t-36 142.5t36 143t99.5 100t142.5 36t142 -36t99.5 -100t36.5 -143t-36 -142.5t-99.5 -99.5t-142.5 -36t-142.5 36zM443 92q46 27 72 74.5t26 106.5q0 60 -26 107.5t-72 74.5t-104 27q-57 0 -103.5 -27t-73 -74.5t-26.5 -107.5
q0 -59 26.5 -106.5t73 -74.5t103.5 -27q58 0 104 27zM447.5 753q45.5 -33 47.5 -84q0 -16 -10.5 -27.5t-26.5 -11.5t-27 10t-11 26q0 24 -22.5 39.5t-59.5 15.5q-35 0 -58 -16t-23 -39q0 -15 -11 -25.5t-26 -10.5q-16 0 -27 11.5t-11 28.5q0 32 21 58.5t57 42t78 15.5
q64 0 109.5 -33z" />
    <glyph glyph-name="omacron" unicode="&#x14d;" 
d="M196.5 31q-63.5 36 -99.5 99.5t-36 142.5t36 143t99.5 100t142.5 36t142 -36t99.5 -100t36.5 -143t-36 -142.5t-99.5 -99.5t-142.5 -36t-142.5 36zM443 92q46 27 72 74.5t26 106.5q0 60 -26 107.5t-72 74.5t-104 27q-57 0 -103.5 -27t-73 -74.5t-26.5 -107.5
q0 -59 26.5 -106.5t73 -74.5t103.5 -27q58 0 104 27zM181 666q-11 10 -11 26t11 26t28 10h259q16 0 27.5 -10t11.5 -26t-11.5 -26t-27.5 -10h-259q-17 0 -28 10z" />
    <glyph glyph-name="uni01EB" unicode="&#x1eb;" 
d="M536 -122.5q11 -11.5 11 -27.5q0 -18 -13 -31l-40 -26q-30 -21 -64 -21q-48 0 -82.5 34.5t-34.5 82.5q0 55 49 96q9 6 15 12q-24 -2 -38 -2q-79 0 -142.5 36t-99.5 99.5t-36 142.5t36 143t99.5 100t142.5 36t142 -36t99.5 -100t36.5 -143q0 -84 -41 -150.5t-111 -99.5
q4 -10 4 -17q0 -40 -62 -85q-16 -12 -16 -32q0 -17 11.5 -28t27.5 -11q12 0 21 6l34 25q11 8 23 8q17 0 28 -11.5zM162.5 166.5q26.5 -47.5 73 -74.5t103.5 -27q58 0 104 27t72 74.5t26 106.5q0 60 -26 107.5t-72 74.5t-104 27q-57 0 -103.5 -27t-73 -74.5t-26.5 -107.5
q0 -59 26.5 -106.5z" />
    <glyph glyph-name="oslash" unicode="&#xf8;" horiz-adv-x="700" 
d="M578 444q27 -35 41.5 -79.5t14.5 -93.5q0 -79 -36 -142.5t-99.5 -99.5t-142.5 -36q-103 0 -179 60l-63 -63q-9 -9 -22 -9t-22 9.5t-9 21.5t9 21l64 64q-56 75 -56 174q0 79 36 143t99.5 100t142.5 36q52 0 97.5 -15.5t81.5 -45.5l51 50q8 10 23 10q14 0 21.5 -9.5
t7.5 -22.5t-7 -20zM252.5 453q-46.5 -27 -73 -74.5t-26.5 -107.5q0 -73 39 -126l292 291q-53 44 -128 44q-57 0 -103.5 -27zM460 90q46 27 72 74.5t26 106.5q0 68 -34 121l-291 -289q54 -40 123 -40q58 0 104 27z" />
    <glyph glyph-name="oslashacute" unicode="&#x1ff;" horiz-adv-x="700" 
d="M578 444q27 -35 41.5 -79.5t14.5 -93.5q0 -79 -36 -142.5t-99.5 -99.5t-142.5 -36q-103 0 -179 60l-63 -63q-9 -9 -22 -9t-22 9.5t-9 21.5t9 21l64 64q-56 75 -56 174q0 79 36 143t99.5 100t142.5 36q52 0 97.5 -15.5t81.5 -45.5l51 50q8 10 23 10q14 0 21.5 -9.5
t7.5 -22.5t-7 -20zM252.5 453q-46.5 -27 -73 -74.5t-26.5 -107.5q0 -73 39 -126l292 291q-53 44 -128 44q-57 0 -103.5 -27zM460 90q46 27 72 74.5t26 106.5q0 68 -34 121l-291 -289q54 -40 123 -40q58 0 104 27zM321 639.5q-11 11.5 -11 27.5t9 26l113 113q11 11 27 11
q17 0 28 -11.5t11 -28.5q0 -16 -11 -26l-112 -113q-10 -10 -26 -10q-17 0 -28 11.5z" />
    <glyph glyph-name="otilde" unicode="&#xf5;" 
d="M196.5 31q-63.5 36 -99.5 99.5t-36 142.5t36 143t99.5 100t142.5 36t142 -36t99.5 -100t36.5 -143t-36 -142.5t-99.5 -99.5t-142.5 -36t-142.5 36zM443 92q46 27 72 74.5t26 106.5q0 60 -26 107.5t-72 74.5t-104 27q-57 0 -103.5 -27t-73 -74.5t-26.5 -107.5
q0 -59 26.5 -106.5t73 -74.5t103.5 -27q58 0 104 27zM394 636q-22 9 -47 24q-21 13 -34 18t-26 5q-37 0 -66 -35q-6 -9 -15 -14t-18 -5t-17 5q-7 4 -11.5 11.5t-4.5 15.5q0 12 7 22q25 32 58 49.5t69 17.5q27 0 47 -8t46 -24q23 -14 34.5 -19t26.5 -5q31 0 49 20
q15 17 31 17q8 0 16 -5q18 -9 18 -28q0 -11 -8 -22q-40 -49 -105 -49q-28 0 -50 9z" />
    <glyph glyph-name="uni022D" unicode="&#x22d;" 
d="M196.5 31q-63.5 36 -99.5 99.5t-36 142.5t36 143t99.5 100t142.5 36t142 -36t99.5 -100t36.5 -143t-36 -142.5t-99.5 -99.5t-142.5 -36t-142.5 36zM443 92q46 27 72 74.5t26 106.5q0 60 -26 107.5t-72 74.5t-104 27q-57 0 -103.5 -27t-73 -74.5t-26.5 -107.5
q0 -59 26.5 -106.5t73 -74.5t103.5 -27q58 0 104 27zM394 636q-22 9 -47 24q-21 13 -34 18t-26 5q-37 0 -66 -35q-6 -9 -15 -14t-18 -5t-17 5q-7 4 -11.5 11.5t-4.5 15.5q0 12 7 22q25 32 58 49.5t69 17.5q27 0 47 -8t46 -24q23 -14 34.5 -19t26.5 -5q31 0 49 20
q15 17 31 17q8 0 16 -5q18 -9 18 -28q0 -11 -8 -22q-40 -49 -105 -49q-28 0 -50 9zM191 826q-11 10 -11 26t11 26t28 10h259q16 0 27.5 -10t11.5 -26t-11.5 -26t-27.5 -10h-259q-17 0 -28 10z" />
    <glyph glyph-name="oe" unicode="&#x153;" horiz-adv-x="1094" 
d="M935 517.5q57 -34.5 88 -95.5t31 -139q0 -16 -10 -25.5t-26 -9.5h-404q8 -82 64 -133t140 -51q36 0 72.5 12.5t58.5 31.5q13 10 27 10q11 0 22 -8q14 -12 14 -27q0 -12 -12 -23q-33 -29 -84 -47t-98 -18q-81 0 -143.5 38t-96.5 104q-33 -66 -95.5 -104t-143.5 -38
t-144 35.5t-98.5 98.5t-35.5 144t35.5 144.5t98.5 99t144 35.5t143 -37.5t95 -103.5q31 66 90.5 103.5t135.5 37.5q75 0 132 -34.5zM677 436q-50 -47 -61 -124h367q-8 77 -56.5 124t-123.5 47q-76 0 -126 -47zM443 91.5q46 26.5 72 74t26 107.5t-26 107.5t-72 74.5t-104 27
q-59 0 -105 -27t-72 -74.5t-26 -107.5t26 -107.5t72 -74t105 -26.5q58 0 104 26.5z" />
    <glyph glyph-name="p" unicode="p" horiz-adv-x="707" 
d="M509.5 515.5q63.5 -36.5 100 -100.5t36.5 -142t-35.5 -141.5t-97 -100t-137.5 -36.5q-65 0 -119 27.5t-89 75.5v-293q0 -17 -11 -28t-28 -11t-27.5 11t-10.5 28v224q-1 3 -1 9v235q0 78 36.5 142t100 100.5t141.5 36.5t141.5 -36.5zM471.5 92q46.5 27 73 74.5t26.5 106.5
t-26.5 106.5t-73 75t-103.5 27.5t-103 -27.5t-72.5 -75t-26.5 -106.5q0 -17 1 -25q1 -2 1 -5q10 -78 65.5 -128t134.5 -50q57 0 103.5 27z" />
    <glyph glyph-name="thorn" unicode="&#xfe;" horiz-adv-x="707" 
d="M514.5 516.5q61.5 -35.5 96.5 -99t35 -144.5q0 -80 -34.5 -143.5t-96 -99t-139.5 -35.5q-70 0 -124.5 32t-84.5 88v-310q1 -17 -10 -28t-28 -11t-28 11t-11 28v937q0 17 11 28t28 11t28 -11t10 -28l-4 -314q32 60 90 92t123 32q77 0 138.5 -35.5zM472 91.5q46 26.5 72 74
t26 107.5t-26 107.5t-72 74.5t-105 27q-58 0 -104 -27t-71.5 -74.5t-25.5 -107.5t25.5 -107.5t71.5 -74t104 -26.5q59 0 105 26.5z" />
    <glyph glyph-name="q" unicode="q" horiz-adv-x="707" 
d="M617 38q0 -6 -1 -9v-224q0 -17 -10.5 -28t-27.5 -11t-28 11t-11 28v293q-35 -48 -89 -75.5t-119 -27.5q-76 0 -137.5 36.5t-97 100t-35.5 141.5t36.5 142t100 100.5t141.5 36.5t141.5 -36.5t100 -100.5t36.5 -142v-235zM473.5 115q55.5 50 65.5 128q0 3 1 5q1 8 1 25
q0 59 -26.5 106.5t-72.5 75t-103 27.5t-103.5 -27.5t-73 -75t-26.5 -106.5t26.5 -106.5t73 -74.5t103.5 -27q79 0 134.5 50z" />
    <glyph glyph-name="r" unicode="r" horiz-adv-x="458" 
d="M403.5 542q24.5 -11 24.5 -31q0 -6 -1 -9q-4 -14 -12.5 -19t-23.5 -5q-9 0 -31 2q-8 1 -24 1q-75 0 -122.5 -40t-47.5 -104v-299q0 -18 -10 -28t-28 -10t-28 10t-10 28v471q0 18 10 28t28 10t28 -10t10 -28v-44q29 42 74 65t97 23q42 0 66.5 -11z" />
    <glyph glyph-name="racute" unicode="&#x155;" horiz-adv-x="458" 
d="M403.5 542q24.5 -11 24.5 -31q0 -6 -1 -9q-4 -14 -12.5 -19t-23.5 -5q-9 0 -31 2q-8 1 -24 1q-75 0 -122.5 -40t-47.5 -104v-299q0 -18 -10 -28t-28 -10t-28 10t-10 28v471q0 18 10 28t28 10t28 -10t10 -28v-44q29 42 74 65t97 23q42 0 66.5 -11zM222 641.5
q-11 11.5 -11 27.5t9 26l113 113q11 11 27 11q17 0 28 -11.5t11 -28.5q0 -16 -11 -26l-112 -113q-10 -10 -26 -10q-17 0 -28 11.5z" />
    <glyph glyph-name="rcaron" unicode="&#x159;" horiz-adv-x="458" 
d="M403.5 542q24.5 -11 24.5 -31q0 -6 -1 -9q-4 -14 -12.5 -19t-23.5 -5q-9 0 -31 2q-8 1 -24 1q-75 0 -122.5 -40t-47.5 -104v-299q0 -18 -10 -28t-28 -10t-28 10t-10 28v471q0 18 10 28t28 10t28 -10t10 -28v-44q29 42 74 65t97 23q42 0 66.5 -11zM238 644l-118 78
q-19 13 -19 33q0 13 8.5 21t22.5 8q15 0 32 -11l93 -63l93 62q17 12 33 12q14 0 22 -8.5t8 -20.5q0 -20 -19 -33l-117 -78q-7 -5 -20 -5t-19 5z" />
    <glyph glyph-name="rcommaaccent" unicode="&#x157;" horiz-adv-x="458" 
d="M403.5 542q24.5 -11 24.5 -31q0 -6 -1 -9q-4 -14 -12.5 -19t-23.5 -5q-9 0 -31 2q-8 1 -24 1q-75 0 -122.5 -40t-47.5 -104v-299q0 -18 -10 -28t-28 -10t-28 10t-10 28v471q0 18 10 28t28 10t28 -10t10 -28v-44q29 42 74 65t97 23q42 0 66.5 -11zM51.5 -218
q-38.5 20 -38.5 51q0 13 8 20.5t21 7.5q11 0 19 -4t19 -13q12 -11 25 -17.5t34 -6.5q58 0 58 43q0 19 -17 30t-52 11q-21 0 -33 7t-12 20q0 14 12 22t35 8q55 0 90.5 -27.5t35.5 -70.5q0 -46 -35 -73.5t-87 -27.5q-44 0 -82.5 20z" />
    <glyph glyph-name="uni0211" unicode="&#x211;" horiz-adv-x="458" 
d="M403.5 542q24.5 -11 24.5 -31q0 -6 -1 -9q-4 -14 -12.5 -19t-23.5 -5q-9 0 -31 2q-8 1 -24 1q-75 0 -122.5 -40t-47.5 -104v-299q0 -18 -10 -28t-28 -10t-28 10t-10 28v471q0 18 10 28t28 10t28 -10t10 -28v-44q29 42 74 65t97 23q42 0 66.5 -11zM185 643l-61 129
q-3 8 -3 14q0 16 11 27.5t28 11.5q12 0 22 -7t13 -17l44 -136q2 -8 2 -12q0 -13 -8.5 -21t-19.5 -8q-19 0 -28 19zM336 643l-61 129q-3 8 -3 14q0 16 11.5 27.5t28.5 11.5q12 0 22 -7t14 -17l42 -136q2 -4 2 -12q0 -13 -8.5 -21t-19.5 -8q-19 0 -28 19z" />
    <glyph glyph-name="uni0213" unicode="&#x213;" horiz-adv-x="458" 
d="M403.5 542q24.5 -11 24.5 -31q0 -6 -1 -9q-4 -14 -12.5 -19t-23.5 -5q-9 0 -31 2q-8 1 -24 1q-75 0 -122.5 -40t-47.5 -104v-299q0 -18 -10 -28t-28 -10t-28 10t-10 28v471q0 18 10 28t28 10t28 -10t10 -28v-44q29 42 74 65t97 23q42 0 66.5 -11zM365.5 753
q45.5 -33 47.5 -84q0 -16 -10.5 -27.5t-26.5 -11.5t-27 10t-11 26q0 24 -22.5 39.5t-59.5 15.5q-35 0 -58 -16t-23 -39q0 -15 -11 -25.5t-26 -10.5q-16 0 -27 11.5t-11 28.5q0 32 21 58.5t57 42t78 15.5q64 0 109.5 -33z" />
    <glyph glyph-name="s" unicode="s" horiz-adv-x="539" 
d="M162 16q-57 21 -92 59q-10 12 -10 23q0 17 16 30q12 9 25 9q17 0 29 -14q24 -28 63.5 -43t87.5 -15q70 0 105 24t36 63q0 36 -35 60t-111 36q-98 16 -146.5 55.5t-48.5 95.5q0 73 56.5 113t141.5 40q66 0 115 -22.5t79 -62.5q8 -13 8 -23q0 -17 -16 -27q-7 -5 -19 -5
q-21 0 -35 15q-49 56 -134 56q-55 0 -88 -22.5t-33 -56.5q0 -36 31 -57.5t110 -34.5q107 -18 153 -58.5t46 -100.5q0 -46 -27.5 -82t-76.5 -56t-111 -20t-119 21z" />
    <glyph glyph-name="sacute" unicode="&#x15b;" horiz-adv-x="539" 
d="M162 16q-57 21 -92 59q-10 12 -10 23q0 17 16 30q12 9 25 9q17 0 29 -14q24 -28 63.5 -43t87.5 -15q70 0 105 24t36 63q0 36 -35 60t-111 36q-98 16 -146.5 55.5t-48.5 95.5q0 73 56.5 113t141.5 40q66 0 115 -22.5t79 -62.5q8 -13 8 -23q0 -17 -16 -27q-7 -5 -19 -5
q-21 0 -35 15q-49 56 -134 56q-55 0 -88 -22.5t-33 -56.5q0 -36 31 -57.5t110 -34.5q107 -18 153 -58.5t46 -100.5q0 -46 -27.5 -82t-76.5 -56t-111 -20t-119 21zM243 641.5q-11 11.5 -11 27.5t9 26l113 113q11 11 27 11q17 0 28 -11.5t11 -28.5q0 -16 -11 -26l-112 -113
q-10 -10 -26 -10q-17 0 -28 11.5z" />
    <glyph glyph-name="scaron" unicode="&#x161;" horiz-adv-x="539" 
d="M162 16q-57 21 -92 59q-10 12 -10 23q0 17 16 30q12 9 25 9q17 0 29 -14q24 -28 63.5 -43t87.5 -15q70 0 105 24t36 63q0 36 -35 60t-111 36q-98 16 -146.5 55.5t-48.5 95.5q0 73 56.5 113t141.5 40q66 0 115 -22.5t79 -62.5q8 -13 8 -23q0 -17 -16 -27q-7 -5 -19 -5
q-21 0 -35 15q-49 56 -134 56q-55 0 -88 -22.5t-33 -56.5q0 -36 31 -57.5t110 -34.5q107 -18 153 -58.5t46 -100.5q0 -46 -27.5 -82t-76.5 -56t-111 -20t-119 21zM259 644l-118 78q-19 13 -19 33q0 13 8.5 21t22.5 8q15 0 32 -11l93 -63l93 62q17 12 33 12q14 0 22 -8.5
t8 -20.5q0 -20 -19 -33l-117 -78q-7 -5 -20 -5t-19 5z" />
    <glyph glyph-name="scedilla" unicode="&#x15f;" horiz-adv-x="539" 
d="M451.5 52q-44.5 -42 -118.5 -53l-15 -35q50 -13 71.5 -36t21.5 -57q0 -28 -18 -52t-49 -38t-69 -14q-52 0 -87 22t-35 52q0 15 11 26t26 11q19 0 35 -21q16 -24 51 -24q23 0 38 10t15 28q0 19 -12 30t-40 18q-19 4 -29 11.5t-10 20.5q0 8 5 23l9 22q-54 5 -102.5 25
t-79.5 54q-10 12 -10 23q0 17 16 30q12 9 25 9q17 0 29 -14q24 -28 63.5 -43t87.5 -15q70 0 105 24t36 63q0 36 -35 60t-111 36q-98 16 -146.5 55.5t-48.5 95.5q0 73 56.5 113t141.5 40q66 0 115 -22.5t79 -62.5q8 -13 8 -23q0 -17 -16 -27q-7 -5 -19 -5q-21 0 -35 15
q-49 56 -134 56q-55 0 -88 -22.5t-33 -56.5q0 -36 31 -57.5t110 -34.5q107 -18 153 -58.5t46 -100.5q0 -59 -44.5 -101z" />
    <glyph glyph-name="scircumflex" unicode="&#x15d;" horiz-adv-x="539" 
d="M162 16q-57 21 -92 59q-10 12 -10 23q0 17 16 30q12 9 25 9q17 0 29 -14q24 -28 63.5 -43t87.5 -15q70 0 105 24t36 63q0 36 -35 60t-111 36q-98 16 -146.5 55.5t-48.5 95.5q0 73 56.5 113t141.5 40q66 0 115 -22.5t79 -62.5q8 -13 8 -23q0 -17 -16 -27q-7 -5 -19 -5
q-21 0 -35 15q-49 56 -134 56q-55 0 -88 -22.5t-33 -56.5q0 -36 31 -57.5t110 -34.5q107 -18 153 -58.5t46 -100.5q0 -46 -27.5 -82t-76.5 -56t-111 -20t-119 21zM133.5 643.5q-11.5 9.5 -11.5 25.5q0 21 19 34l118 78q8 5 19 5q10 0 20 -5l117 -78q19 -13 19 -34
q0 -15 -11 -25t-28 -10q-11 0 -24 8l-93 64l-93 -64q-11 -8 -23 -8q-17 0 -28.5 9.5z" />
    <glyph glyph-name="scommaaccent" unicode="&#x219;" horiz-adv-x="539" 
d="M162 16q-57 21 -92 59q-10 12 -10 23q0 17 16 30q12 9 25 9q17 0 29 -14q24 -28 63.5 -43t87.5 -15q70 0 105 24t36 63q0 36 -35 60t-111 36q-98 16 -146.5 55.5t-48.5 95.5q0 73 56.5 113t141.5 40q66 0 115 -22.5t79 -62.5q8 -13 8 -23q0 -17 -16 -27q-7 -5 -19 -5
q-21 0 -35 15q-49 56 -134 56q-55 0 -88 -22.5t-33 -56.5q0 -36 31 -57.5t110 -34.5q107 -18 153 -58.5t46 -100.5q0 -46 -27.5 -82t-76.5 -56t-111 -20t-119 21zM201.5 -218q-38.5 20 -38.5 51q0 13 8 20.5t21 7.5q11 0 19 -4t19 -13q12 -11 25 -17.5t34 -6.5q58 0 58 43
q0 19 -17 30t-52 11q-21 0 -33 7t-12 20q0 14 12 22t35 8q55 0 90.5 -27.5t35.5 -70.5q0 -46 -35 -73.5t-87 -27.5q-44 0 -82.5 20z" />
    <glyph glyph-name="germandbls" unicode="&#xdf;" horiz-adv-x="547" 
d="M63 11q-11 11 -11 27v540q0 55 26.5 99.5t74.5 70.5t109 26q55 0 98.5 -22.5t68 -62.5t24.5 -91q0 -35 -13.5 -60.5t-38.5 -54.5q-19 -22 -28.5 -38t-9.5 -35q0 -21 13.5 -38t45.5 -48q43 -38 67.5 -73t24.5 -84q0 -48 -25 -87t-69 -61.5t-99 -22.5q-35 0 -70 12.5
t-57.5 32.5t-22.5 41q0 15 8.5 24.5t23.5 9.5q11 0 18 -4t17 -13q15 -14 33 -22t54 -8q53 0 83 25.5t30 72.5q0 34 -18 59t-56 61t-56 61t-18 60q0 29 11.5 48.5t34.5 44.5q23 26 34 45t11 48q0 52 -32.5 80t-88.5 28t-93 -36.5t-37 -93.5v-534q0 -17 -11 -27.5t-29 -10.5
q-16 0 -27 11z" />
    <glyph glyph-name="longs" unicode="&#x17f;" horiz-adv-x="309" 
d="M71 10.5q-11 10.5 -11 28.5v507q0 107 55 171t156 64q16 0 27 -10t11 -25t-11 -25t-27 -10q-66 0 -99.5 -44t-33.5 -117v-511q0 -18 -11 -28.5t-29 -10.5q-16 0 -27 10.5z" />
    <glyph glyph-name="t" unicode="t" horiz-adv-x="402" 
d="M357 66q10 -11 10 -28q0 -16 -12 -27t-30 -11h-21q-53 0 -95 25.5t-65.5 69t-23.5 98.5v267h-65q-16 0 -25.5 9.5t-9.5 23.5q0 15 9.5 24.5t25.5 9.5h65v155q0 17 10.5 28t27.5 11t28 -11t11 -28v-155h113q16 0 25.5 -9.5t9.5 -24.5q0 -14 -9.5 -23.5t-25.5 -9.5h-113
v-267q0 -51 30 -83.5t77 -32.5h27q16 0 26 -11z" />
    <glyph glyph-name="tbar" unicode="&#x167;" horiz-adv-x="402" 
d="M357 66q10 -11 10 -28q0 -16 -12 -27t-30 -11h-21q-53 0 -95 25.5t-65.5 69t-23.5 98.5v91h-65q-16 0 -25.5 9.5t-9.5 23.5q0 15 9.5 24.5t25.5 9.5h65v109h-65q-16 0 -25.5 9.5t-9.5 23.5q0 15 9.5 24.5t25.5 9.5h65v155q0 17 10.5 28t27.5 11t28 -11t11 -28v-155h113
q16 0 25.5 -9.5t9.5 -24.5q0 -14 -9.5 -23.5t-25.5 -9.5h-113v-109h101q16 0 25.5 -9.5t9.5 -24.5q0 -14 -9.5 -23.5t-25.5 -9.5h-101v-91q0 -51 30 -83.5t77 -32.5h27q16 0 26 -11z" />
    <glyph glyph-name="tcaron" unicode="&#x165;" horiz-adv-x="402" 
d="M357 66q10 -11 10 -28q0 -16 -12 -27t-30 -11h-21q-53 0 -95 25.5t-65.5 69t-23.5 98.5v267h-65q-16 0 -25.5 9.5t-9.5 23.5q0 15 9.5 24.5t25.5 9.5h65v155q0 17 10.5 28t27.5 11t28 -11t11 -28v-155h113q16 0 25.5 -9.5t9.5 -24.5q0 -14 -9.5 -23.5t-25.5 -9.5h-113
v-267q0 -51 30 -83.5t77 -32.5h27q16 0 26 -11zM248 615.5q-6 5.5 -6 15.5q0 12 16 37q13 19 21 36.5t10 39.5q1 13 -1 22.5t-7 22.5q-3 8 -6 19t-3 23q0 20 12.5 29.5t33.5 9.5q25 0 39 -21t14 -54q0 -7 -2 -23q-5 -34 -24 -72t-42 -64t-39 -26q-10 0 -16 5.5z" />
    <glyph glyph-name="uni0163" unicode="&#x163;" horiz-adv-x="402" 
d="M277 0l-15 -36q50 -13 71.5 -36t21.5 -57q0 -28 -18 -52t-49 -38t-69 -14q-52 0 -87 22t-35 52q0 15 11 26t26 11q19 0 35 -21q16 -24 51 -24q23 0 38 10t15 28q0 19 -12 30t-40 18q-19 4 -29 11.5t-10 20.5q0 8 5 23l16 41q1 6 5 11q-41 25 -64.5 68.5t-23.5 98.5v267
h-65q-16 0 -25.5 9.5t-9.5 23.5q0 15 9.5 24.5t25.5 9.5h65v155q0 17 10.5 28t27.5 11t28 -11t11 -28v-155h113q16 0 25.5 -9.5t9.5 -24.5q0 -14 -9.5 -23.5t-25.5 -9.5h-113v-267q0 -51 30 -83.5t77 -32.5h27q16 0 26 -11t10 -28q0 -16 -12 -27t-30 -11h-21q-10 0 -26 2z
" />
    <glyph glyph-name="uni021B" unicode="&#x21b;" horiz-adv-x="402" 
d="M357 66q10 -11 10 -28q0 -16 -12 -27t-30 -11h-21q-53 0 -95 25.5t-65.5 69t-23.5 98.5v267h-65q-16 0 -25.5 9.5t-9.5 23.5q0 15 9.5 24.5t25.5 9.5h65v155q0 17 10.5 28t27.5 11t28 -11t11 -28v-155h113q16 0 25.5 -9.5t9.5 -24.5q0 -14 -9.5 -23.5t-25.5 -9.5h-113
v-267q0 -51 30 -83.5t77 -32.5h27q16 0 26 -11zM145.5 -218q-38.5 20 -38.5 51q0 13 8 20.5t21 7.5q11 0 19 -4t19 -13q12 -11 25 -17.5t34 -6.5q58 0 58 43q0 19 -17 30t-52 11q-21 0 -33 7t-12 20q0 14 12 22t35 8q55 0 90.5 -27.5t35.5 -70.5q0 -46 -35 -73.5t-87 -27.5
q-44 0 -82.5 20z" />
    <glyph glyph-name="u" unicode="u" 
d="M576 536.5q11 -10.5 11 -27.5v-470q0 -17 -11 -28t-28 -11t-27.5 11t-10.5 28v34q-33 -37 -80 -58t-102 -21q-71 0 -127.5 30t-88.5 87.5t-32 137.5v260q0 16 11 27t27 11q17 0 28 -11t11 -27v-260q0 -89 49.5 -135.5t129.5 -46.5q49 0 88.5 19t62.5 52.5t23 74.5v296
q0 17 10.5 27.5t27.5 10.5t28 -10.5z" />
    <glyph glyph-name="uacute" unicode="&#xfa;" 
d="M576 536.5q11 -10.5 11 -27.5v-470q0 -17 -11 -28t-28 -11t-27.5 11t-10.5 28v34q-33 -37 -80 -58t-102 -21q-71 0 -127.5 30t-88.5 87.5t-32 137.5v260q0 16 11 27t27 11q17 0 28 -11t11 -27v-260q0 -89 49.5 -135.5t129.5 -46.5q49 0 88.5 19t62.5 52.5t23 74.5v296
q0 17 10.5 27.5t27.5 10.5t28 -10.5zM304 641.5q-11 11.5 -11 27.5t9 26l113 113q11 11 27 11q17 0 28 -11.5t11 -28.5q0 -16 -11 -26l-112 -113q-10 -10 -26 -10q-17 0 -28 11.5z" />
    <glyph glyph-name="ubreve" unicode="&#x16d;" 
d="M576 536.5q11 -10.5 11 -27.5v-470q0 -17 -11 -28t-28 -11t-27.5 11t-10.5 28v34q-33 -37 -80 -58t-102 -21q-71 0 -127.5 30t-88.5 87.5t-32 137.5v260q0 16 11 27t27 11q17 0 28 -11t11 -27v-260q0 -89 49.5 -135.5t129.5 -46.5q49 0 88.5 19t62.5 52.5t23 74.5v296
q0 17 10.5 27.5t27.5 10.5t28 -10.5zM260 646.5q-36 15.5 -57 42t-21 58.5q0 17 11 28.5t27 11.5q15 0 26 -10.5t11 -25.5q0 -23 23 -39t58 -16q37 0 59.5 15.5t22.5 39.5q0 16 11 26t27 10t26.5 -11.5t10.5 -27.5q-2 -51 -47.5 -84t-109.5 -33q-42 0 -78 15.5z" />
    <glyph glyph-name="ucircumflex" unicode="&#xfb;" 
d="M576 536.5q11 -10.5 11 -27.5v-470q0 -17 -11 -28t-28 -11t-27.5 11t-10.5 28v34q-33 -37 -80 -58t-102 -21q-71 0 -127.5 30t-88.5 87.5t-32 137.5v260q0 16 11 27t27 11q17 0 28 -11t11 -27v-260q0 -89 49.5 -135.5t129.5 -46.5q49 0 88.5 19t62.5 52.5t23 74.5v296
q0 17 10.5 27.5t27.5 10.5t28 -10.5zM194.5 643.5q-11.5 9.5 -11.5 25.5q0 21 19 34l118 78q8 5 19 5q10 0 20 -5l117 -78q19 -13 19 -34q0 -15 -11 -25t-28 -10q-11 0 -24 8l-93 64l-93 -64q-11 -8 -23 -8q-17 0 -28.5 9.5z" />
    <glyph glyph-name="uni0215" unicode="&#x215;" 
d="M576 536.5q11 -10.5 11 -27.5v-470q0 -17 -11 -28t-28 -11t-27.5 11t-10.5 28v34q-33 -37 -80 -58t-102 -21q-71 0 -127.5 30t-88.5 87.5t-32 137.5v260q0 16 11 27t27 11q17 0 28 -11t11 -27v-260q0 -89 49.5 -135.5t129.5 -46.5q49 0 88.5 19t62.5 52.5t23 74.5v296
q0 17 10.5 27.5t27.5 10.5t28 -10.5zM267 643l-61 129q-3 8 -3 14q0 16 11 27.5t28 11.5q12 0 22 -7t13 -17l44 -136q2 -8 2 -12q0 -13 -8.5 -21t-19.5 -8q-19 0 -28 19zM418 643l-61 129q-3 8 -3 14q0 16 11.5 27.5t28.5 11.5q12 0 22 -7t14 -17l42 -136q2 -4 2 -12
q0 -13 -8.5 -21t-19.5 -8q-19 0 -28 19z" />
    <glyph glyph-name="udieresis" unicode="&#xfc;" 
d="M576 536.5q11 -10.5 11 -27.5v-470q0 -17 -11 -28t-28 -11t-27.5 11t-10.5 28v34q-33 -37 -80 -58t-102 -21q-71 0 -127.5 30t-88.5 87.5t-32 137.5v260q0 16 11 27t27 11q17 0 28 -11t11 -27v-260q0 -89 49.5 -135.5t129.5 -46.5q49 0 88.5 19t62.5 52.5t23 74.5v296
q0 17 10.5 27.5t27.5 10.5t28 -10.5zM196 663q-16 16 -16 39t16 39t39 16t39 -16t16 -39t-16 -39t-39 -16t-39 16zM405 663q-16 16 -16 39t16 39t39 16t39 -16t16 -39t-16 -39t-39 -16t-39 16z" />
    <glyph glyph-name="uni1EE5" unicode="&#x1ee5;" 
d="M576 536.5q11 -10.5 11 -27.5v-470q0 -17 -11 -28t-28 -11t-27.5 11t-10.5 28v34q-33 -37 -80 -58t-102 -21q-71 0 -127.5 30t-88.5 87.5t-32 137.5v260q0 16 11 27t27 11q17 0 28 -11t11 -27v-260q0 -89 49.5 -135.5t129.5 -46.5q49 0 88.5 19t62.5 52.5t23 74.5v296
q0 17 10.5 27.5t27.5 10.5t28 -10.5zM299.5 -193q-15.5 16 -15.5 39q0 24 16 39t39 15q22 0 38 -15t16 -39q0 -23 -16 -39t-39 -16t-38.5 16z" />
    <glyph glyph-name="ugrave" unicode="&#xf9;" 
d="M576 536.5q11 -10.5 11 -27.5v-470q0 -17 -11 -28t-28 -11t-27.5 11t-10.5 28v34q-33 -37 -80 -58t-102 -21q-71 0 -127.5 30t-88.5 87.5t-32 137.5v260q0 16 11 27t27 11q17 0 28 -11t11 -27v-260q0 -89 49.5 -135.5t129.5 -46.5q49 0 88.5 19t62.5 52.5t23 74.5v296
q0 17 10.5 27.5t27.5 10.5t28 -10.5zM312 647l-113 112q-10 10 -10 27t11 28.5t27 11.5t28 -12l112 -113q10 -9 10 -25q0 -17 -11 -28.5t-28 -11.5q-15 0 -26 11z" />
    <glyph glyph-name="uni1EE7" unicode="&#x1ee7;" 
d="M576 536.5q11 -10.5 11 -27.5v-470q0 -17 -11 -28t-28 -11t-27.5 11t-10.5 28v34q-33 -37 -80 -58t-102 -21q-71 0 -127.5 30t-88.5 87.5t-32 137.5v260q0 16 11 27t27 11q17 0 28 -11t11 -27v-260q0 -89 49.5 -135.5t129.5 -46.5q49 0 88.5 19t62.5 52.5t23 74.5v296
q0 17 10.5 27.5t27.5 10.5t28 -10.5zM312.5 608.5q-10.5 10.5 -10.5 25.5v28q0 32 32 39l25 5q41 10 41 44q0 22 -14 34t-36 12q-23 0 -44 -16q-9 -9 -25 -9q-13 0 -22.5 9t-9.5 23q0 17 12 27q39 31 88 31q51 0 84 -29.5t33 -76.5q0 -44 -28 -68.5t-73 -31.5l8 -13
q0 -20 -10 -32t-25 -12t-25.5 10.5z" />
    <glyph glyph-name="uhorn" unicode="&#x1b0;" 
d="M695.5 648.5q9.5 -12.5 9.5 -31.5v-15q0 -54 -32.5 -90t-81.5 -36h-4v-437q0 -17 -11 -28t-28 -11t-27.5 11t-10.5 28v34q-33 -37 -80 -58t-102 -21q-71 0 -127.5 30t-88.5 87.5t-32 137.5v260q0 16 11 27t27 11q17 0 28 -11t11 -27v-260q0 -89 49.5 -135.5t129.5 -46.5
q49 0 88.5 19t62.5 52.5t23 74.5v296q0 17 10 27.5t27 10.5h44q18 0 30.5 15.5t12.5 39.5v21q0 17 9.5 27.5t25.5 10.5q17 0 26.5 -12.5z" />
    <glyph glyph-name="uni1EE9" unicode="&#x1ee9;" 
d="M695.5 648.5q9.5 -12.5 9.5 -31.5v-15q0 -54 -32.5 -90t-81.5 -36h-4v-437q0 -17 -11 -28t-28 -11t-27.5 11t-10.5 28v34q-33 -37 -80 -58t-102 -21q-71 0 -127.5 30t-88.5 87.5t-32 137.5v260q0 16 11 27t27 11q17 0 28 -11t11 -27v-260q0 -89 49.5 -135.5t129.5 -46.5
q49 0 88.5 19t62.5 52.5t23 74.5v296q0 17 10 27.5t27 10.5h44q18 0 30.5 15.5t12.5 39.5v21q0 17 9.5 27.5t25.5 10.5q17 0 26.5 -12.5zM304 641.5q-11 11.5 -11 27.5t9 26l113 113q11 11 27 11q17 0 28 -11.5t11 -28.5q0 -16 -11 -26l-112 -113q-10 -10 -26 -10
q-17 0 -28 11.5z" />
    <glyph glyph-name="uni1EF1" unicode="&#x1ef1;" 
d="M695.5 648.5q9.5 -12.5 9.5 -31.5v-15q0 -54 -32.5 -90t-81.5 -36h-4v-437q0 -17 -11 -28t-28 -11t-27.5 11t-10.5 28v34q-33 -37 -80 -58t-102 -21q-71 0 -127.5 30t-88.5 87.5t-32 137.5v260q0 16 11 27t27 11q17 0 28 -11t11 -27v-260q0 -89 49.5 -135.5t129.5 -46.5
q49 0 88.5 19t62.5 52.5t23 74.5v296q0 17 10 27.5t27 10.5h44q18 0 30.5 15.5t12.5 39.5v21q0 17 9.5 27.5t25.5 10.5q17 0 26.5 -12.5zM299.5 -193q-15.5 16 -15.5 39q0 24 16 39t39 15q22 0 38 -15t16 -39q0 -23 -16 -39t-39 -16t-38.5 16z" />
    <glyph glyph-name="uni1EEB" unicode="&#x1eeb;" 
d="M695.5 648.5q9.5 -12.5 9.5 -31.5v-15q0 -54 -32.5 -90t-81.5 -36h-4v-437q0 -17 -11 -28t-28 -11t-27.5 11t-10.5 28v34q-33 -37 -80 -58t-102 -21q-71 0 -127.5 30t-88.5 87.5t-32 137.5v260q0 16 11 27t27 11q17 0 28 -11t11 -27v-260q0 -89 49.5 -135.5t129.5 -46.5
q49 0 88.5 19t62.5 52.5t23 74.5v296q0 17 10 27.5t27 10.5h44q18 0 30.5 15.5t12.5 39.5v21q0 17 9.5 27.5t25.5 10.5q17 0 26.5 -12.5zM312 647l-113 112q-10 10 -10 27t11 28.5t27 11.5t28 -12l112 -113q10 -9 10 -25q0 -17 -11 -28.5t-28 -11.5q-15 0 -26 11z" />
    <glyph glyph-name="uni1EED" unicode="&#x1eed;" 
d="M695.5 648.5q9.5 -12.5 9.5 -31.5v-15q0 -54 -32.5 -90t-81.5 -36h-4v-437q0 -17 -11 -28t-28 -11t-27.5 11t-10.5 28v34q-33 -37 -80 -58t-102 -21q-71 0 -127.5 30t-88.5 87.5t-32 137.5v260q0 16 11 27t27 11q17 0 28 -11t11 -27v-260q0 -89 49.5 -135.5t129.5 -46.5
q49 0 88.5 19t62.5 52.5t23 74.5v296q0 17 10 27.5t27 10.5h44q18 0 30.5 15.5t12.5 39.5v21q0 17 9.5 27.5t25.5 10.5q17 0 26.5 -12.5zM312.5 608.5q-10.5 10.5 -10.5 25.5v28q0 32 32 39l25 5q41 10 41 44q0 22 -14 34t-36 12q-23 0 -44 -16q-9 -9 -25 -9q-13 0 -22.5 9
t-9.5 23q0 17 12 27q39 31 88 31q51 0 84 -29.5t33 -76.5q0 -44 -28 -68.5t-73 -31.5l8 -13q0 -20 -10 -32t-25 -12t-25.5 10.5z" />
    <glyph glyph-name="uni1EEF" unicode="&#x1eef;" 
d="M695.5 648.5q9.5 -12.5 9.5 -31.5v-15q0 -54 -32.5 -90t-81.5 -36h-4v-437q0 -17 -11 -28t-28 -11t-27.5 11t-10.5 28v34q-33 -37 -80 -58t-102 -21q-71 0 -127.5 30t-88.5 87.5t-32 137.5v260q0 16 11 27t27 11q17 0 28 -11t11 -27v-260q0 -89 49.5 -135.5t129.5 -46.5
q49 0 88.5 19t62.5 52.5t23 74.5v296q0 17 10 27.5t27 10.5h44q18 0 30.5 15.5t12.5 39.5v21q0 17 9.5 27.5t25.5 10.5q17 0 26.5 -12.5zM394 636q-22 9 -47 24q-21 13 -34 18t-26 5q-37 0 -66 -35q-6 -9 -15 -14t-18 -5t-17 5q-7 4 -11.5 11.5t-4.5 15.5q0 12 7 22
q25 32 58 49.5t69 17.5q27 0 47 -8t46 -24q23 -14 34.5 -19t26.5 -5q31 0 49 20q15 17 31 17q8 0 16 -5q18 -9 18 -28q0 -11 -8 -22q-40 -49 -105 -49q-28 0 -50 9z" />
    <glyph glyph-name="uhungarumlaut" unicode="&#x171;" 
d="M576 536.5q11 -10.5 11 -27.5v-470q0 -17 -11 -28t-28 -11t-27.5 11t-10.5 28v34q-33 -37 -80 -58t-102 -21q-71 0 -127.5 30t-88.5 87.5t-32 137.5v260q0 16 11 27t27 11q17 0 28 -11t11 -27v-260q0 -89 49.5 -135.5t129.5 -46.5q49 0 88.5 19t62.5 52.5t23 74.5v296
q0 17 10.5 27.5t27.5 10.5t28 -10.5zM241.5 632q-8.5 8 -8.5 21q0 8 2 12l42 136q4 11 14 17.5t22 6.5q17 0 28.5 -11.5t11.5 -27.5q0 -6 -3 -14l-61 -129q-10 -19 -28 -19q-11 0 -19.5 8zM392.5 632q-8.5 8 -8.5 21q0 4 2 12l44 136q3 10 13 17t22 7q17 0 28 -11.5
t11 -27.5q0 -6 -3 -14l-61 -129q-10 -19 -28 -19q-11 0 -19.5 8z" />
    <glyph glyph-name="uni0217" unicode="&#x217;" 
d="M576 536.5q11 -10.5 11 -27.5v-470q0 -17 -11 -28t-28 -11t-27.5 11t-10.5 28v34q-33 -37 -80 -58t-102 -21q-71 0 -127.5 30t-88.5 87.5t-32 137.5v260q0 16 11 27t27 11q17 0 28 -11t11 -27v-260q0 -89 49.5 -135.5t129.5 -46.5q49 0 88.5 19t62.5 52.5t23 74.5v296
q0 17 10.5 27.5t27.5 10.5t28 -10.5zM447.5 753q45.5 -33 47.5 -84q0 -16 -10.5 -27.5t-26.5 -11.5t-27 10t-11 26q0 24 -22.5 39.5t-59.5 15.5q-35 0 -58 -16t-23 -39q0 -15 -11 -25.5t-26 -10.5q-16 0 -27 11.5t-11 28.5q0 32 21 58.5t57 42t78 15.5q64 0 109.5 -33z" />
    <glyph glyph-name="umacron" unicode="&#x16b;" 
d="M576 536.5q11 -10.5 11 -27.5v-470q0 -17 -11 -28t-28 -11t-27.5 11t-10.5 28v34q-33 -37 -80 -58t-102 -21q-71 0 -127.5 30t-88.5 87.5t-32 137.5v260q0 16 11 27t27 11q17 0 28 -11t11 -27v-260q0 -89 49.5 -135.5t129.5 -46.5q49 0 88.5 19t62.5 52.5t23 74.5v296
q0 17 10.5 27.5t27.5 10.5t28 -10.5zM181 666q-11 10 -11 26t11 26t28 10h259q16 0 27.5 -10t11.5 -26t-11.5 -26t-27.5 -10h-259q-17 0 -28 10z" />
    </font>
</defs>
</svg>
