<?xml version="1.0" standalone="no"?>
<!DOCTYPE svg PUBLIC "-//W3C//DTD SVG 1.1//EN" "http://www.w3.org/Graphics/SVG/1.1/DTD/svg11.dtd" >
<!--
2017-9-26: Created with FontForge (http://fontforge.org)
-->
<svg xmlns="http://www.w3.org/2000/svg" xmlns:xlink="http://www.w3.org/1999/xlink" version="1.1">
<metadata>
Created by FontForge 20160405 at Tue Sep 26 10:15:13 2017
 By Apache
Copyright (c) 2017, Apache
</metadata>
<defs>
<font id="Flaticon" horiz-adv-x="512" >
  <font-face 
    font-family="Flaticon"
    font-weight="400"
    font-stretch="normal"
    units-per-em="512"
    panose-1="2 0 5 3 0 0 0 0 0 0"
    ascent="448"
    descent="-64"
    bbox="-0.00196537 -64.002 512.002 448"
    underline-thickness="25.6"
    underline-position="-51.2"
    unicode-range="U+0020-F117"
  />
    <missing-glyph />
    <glyph glyph-name="space" unicode=" " horiz-adv-x="200" 
 />
    <glyph glyph-name="uniF10A" unicode="&#xf10a;" 
d="M368.478 369.454c65.335 0 118.487 -52.1182 118.49 -116.178c0 -64.0596 -53.1553 -116.178 -118.488 -116.178h-250.185c-51.4238 0 -93.2598 41.0518 -93.2598 91.5078c0 48.0859 37.9961 87.6279 86.0693 91.2422
c-0.00195312 0.248047 -0.00195312 0.493164 -0.00195312 0.740234c0 70.2549 58.3125 127.411 129.984 127.411c52.5811 0 100.255 -31.8213 120.125 -78.7656c2.42188 0.146484 4.8457 0.219727 7.26562 0.219727zM368.478 167.525
c48.5586 0 88.0615 38.4668 88.0596 85.751c0 47.2822 -39.5059 85.751 -88.0615 85.751c-5.00195 0 -10.0264 -0.416016 -14.9355 -1.23926c-7.5293 -1.27539 -14.8271 3.25195 -17.0625 10.5518c-12.4707 40.7627 -51.6982 69.2344 -95.3906 69.2344
c-54.8945 0 -99.5586 -43.5078 -99.5566 -96.9834c0 -4.5293 0.357422 -9.27344 1.06152 -14.0986c0.680664 -4.67969 -0.850586 -9.41016 -4.14453 -12.7998c-3.2959 -3.38965 -7.97949 -5.05859 -12.6758 -4.50684c-2.96289 0.344727 -5.34082 0.506836 -7.47852 0.506836
c-34.6455 0 -62.832 -27.4033 -62.832 -61.0859c0 -33.6797 28.1846 -61.0811 62.832 -61.0811h250.185zM248.426 -0.595703c2.80176 -4.85254 1.1377 -11.0547 -3.71191 -13.8545l-12.6104 -7.2793l12.6104 -7.28027c4.85156 -2.79883 6.51367 -9.00195 3.71191 -13.8545
c-1.87793 -3.25293 -5.28809 -5.07227 -8.79297 -5.07227c-1.71973 0 -3.46289 0.4375 -5.06055 1.36035l-12.6133 7.28223v-14.5615c0 -5.60059 -4.54102 -10.1426 -10.1416 -10.1426s-10.1426 4.54199 -10.1426 10.1426v14.5596l-12.6104 -7.28027
c-1.59668 -0.922852 -3.34082 -1.36035 -5.06055 -1.36035c-3.50781 0 -6.91504 1.81934 -8.79395 5.07227c-2.80078 4.85059 -1.13965 11.0557 3.71191 13.8545l12.6113 7.28027l-12.6113 7.2793c-4.85156 2.7998 -6.5127 9.00195 -3.71191 13.8545
c2.7998 4.84961 9.00293 6.5127 13.8545 3.71191l12.6104 -7.28027v14.5586c0 5.59961 4.54199 10.1416 10.1426 10.1416s10.1416 -4.54199 10.1416 -10.1416v-14.5605l12.6133 7.28223c4.85547 2.79883 11.0527 1.1377 13.8535 -3.71191zM338.357 -0.595703
c2.80176 -4.85254 1.14062 -11.0547 -3.71191 -13.8545l-12.6104 -7.2793l12.6104 -7.28027c4.85254 -2.79883 6.51367 -9.00195 3.71191 -13.8545c-1.87793 -3.25293 -5.28809 -5.07227 -8.79297 -5.07227c-1.71973 0 -3.46289 0.4375 -5.06055 1.36035l-12.6133 7.28223
v-14.5615c0 -5.60059 -4.54102 -10.1426 -10.1416 -10.1426s-10.1426 4.54199 -10.1426 10.1426v14.5596l-12.6104 -7.28027c-1.59863 -0.922852 -3.34082 -1.36035 -5.06055 -1.36035c-3.50586 0 -6.91504 1.81934 -8.79395 5.07227
c-2.80078 4.85059 -1.13965 11.0557 3.71289 13.8545l12.6104 7.28027l-12.6104 7.2793c-4.85059 2.7998 -6.51367 9.00195 -3.71289 13.8545c2.7998 4.84961 9.00098 6.5127 13.8545 3.71191l12.6104 -7.28027v14.5586c0 5.59961 4.54199 10.1416 10.1426 10.1416
s10.1416 -4.54199 10.1416 -10.1416v-14.5605l12.6133 7.28223c4.85352 2.79883 11.0547 1.1377 13.8535 -3.71191zM176.991 49.9863c0 -5.59961 -4.54199 -10.1416 -10.1416 -10.1416c-5.60059 0 -10.1426 4.54199 -10.1426 10.1416v14.5605l-12.6084 -7.28027
c-1.59668 -0.922852 -3.34082 -1.36133 -5.06055 -1.36133c-3.50781 0 -6.91504 1.82031 -8.79395 5.07324c-2.80078 4.85059 -1.13965 11.0527 3.71191 13.8545l12.6113 7.2793l-12.6113 7.28027c-4.84961 2.80176 -6.5127 9.00195 -3.71191 13.8545
c2.7998 4.84961 9.00195 6.51074 13.8545 3.71191l12.6084 -7.28027v14.5576c0 5.60059 4.54199 10.1426 10.1426 10.1426c5.59961 0 10.1416 -4.54199 10.1416 -10.1426v-14.5596l12.6123 7.28223c4.85254 2.80078 11.0557 1.1377 13.8545 -3.71191
c2.80078 -4.85254 1.13965 -11.0527 -3.71191 -13.8545l-12.6104 -7.28027l12.6104 -7.2793c4.85156 -2.80176 6.5127 -9.00195 3.71191 -13.8545c-1.87793 -3.25293 -5.28809 -5.07324 -8.79297 -5.07324c-1.7207 0 -3.46289 0.44043 -5.06152 1.36133l-12.6123 7.28223
v-14.5625zM266.927 49.9863c0 -5.59961 -4.54102 -10.1416 -10.1416 -10.1416s-10.1426 4.54199 -10.1426 10.1416v14.5605l-12.6104 -7.28027c-1.59668 -0.922852 -3.34082 -1.36133 -5.06055 -1.36133c-3.50781 0 -6.91504 1.82031 -8.79395 5.07324
c-2.80078 4.85059 -1.13965 11.0527 3.71289 13.8545l12.6104 7.2793l-12.6104 7.28027c-4.85254 2.80176 -6.51367 9.00195 -3.71289 13.8545c2.80176 4.84961 9.00098 6.51074 13.8545 3.71191l12.6104 -7.28027v14.5576c0 5.60059 4.54199 10.1426 10.1426 10.1426
s10.1416 -4.54199 10.1416 -10.1426v-14.5576l12.6113 7.28027c4.85156 2.80078 11.0527 1.1377 13.8535 -3.71191c2.80176 -4.85254 1.14062 -11.0527 -3.71191 -13.8545l-12.6104 -7.28027l12.6104 -7.2793c4.85254 -2.80176 6.51367 -9.00195 3.71191 -13.8545
c-1.87793 -3.25293 -5.28809 -5.07324 -8.79297 -5.07324c-1.71973 0 -3.46289 0.44043 -5.06055 1.36133l-12.6113 7.28027v-14.5605zM383.323 103.249c2.80176 -4.85254 1.14062 -11.0527 -3.71191 -13.8545l-12.6104 -7.2793l12.6104 -7.28027
c4.85254 -2.80176 6.51367 -9.00195 3.71191 -13.8545c-1.87793 -3.25293 -5.28809 -5.07324 -8.79297 -5.07324c-1.71973 0 -3.46289 0.44043 -5.06055 1.36133l-12.6133 7.28223v-14.5625c0 -5.59961 -4.54102 -10.1416 -10.1416 -10.1416
s-10.1426 4.54199 -10.1426 10.1416v14.5586l-12.6064 -7.27832c-1.5957 -0.922852 -3.34082 -1.36133 -5.06055 -1.36133c-3.50684 0 -6.91504 1.82031 -8.79297 5.07324c-2.80176 4.85059 -1.14062 11.0527 3.71191 13.8545l12.6104 7.28027l-12.6104 7.2793
c-4.85254 2.80176 -6.51367 9.00195 -3.71191 13.8545c2.80078 4.84961 9 6.51074 13.8535 3.71191l12.6064 -7.27832v14.5557c0 5.60059 4.54199 10.1426 10.1426 10.1426s10.1416 -4.54199 10.1416 -10.1426v-14.5596l12.6133 7.28223
c4.85352 2.80078 11.0547 1.1377 13.8535 -3.71191z" />
    <glyph glyph-name="uniF114" unicode="&#xf114;" 
d="M437.778 90.083c8.01758 -1.29102 14.1475 -8.22461 14.1484 -16.6064v-120.635c0 -9.30078 -7.54102 -16.8418 -16.8428 -16.8418h-358.167c-9.30176 0 -16.8428 7.54102 -16.8428 16.8418v431.5c0 9.30078 7.54102 16.8418 16.8428 16.8418
c3.45312 0 6.87988 -0.113281 10.2852 -0.31543v30.29c0 9.30078 7.54004 16.8418 16.8418 16.8418h316.892c9.30176 0 16.8428 -7.54102 16.8428 -16.8418v-341.075zM120.886 414.315v-18.8271c33.0938 -8.74121 62.3135 -27.1074 84.4795 -51.9092h160.426
c6.2002 0 11.2285 -5.02734 11.2285 -11.2285s-5.02832 -11.2275 -11.2285 -11.2275h-143.419c6.05371 -9.51465 11.1953 -19.6621 15.3115 -30.3164h128.109c6.2002 0 11.2275 -5.02637 11.2275 -11.2275s-5.02734 -11.2285 -11.2275 -11.2285h-121.162
c2.30664 -9.81152 3.77539 -19.9434 4.31934 -30.3154h116.845c6.2002 0 11.2275 -5.02734 11.2275 -11.2285s-5.02734 -11.2275 -11.2275 -11.2275h-115.957c1.00488 -10.4873 3.18359 -20.6357 6.40332 -30.3164h109.553c6.2002 0 11.2275 -5.02637 11.2275 -11.2275
s-5.02734 -11.2285 -11.2275 -11.2285h-99.7949c6.05371 -11.1113 13.5908 -21.3008 22.333 -30.3154h77.4609c6.2002 0 11.2275 -5.02637 11.2275 -11.2285c0 -6.20117 -5.02734 -11.2275 -11.2275 -11.2275h-49.1846c20.8174 -12.5117 45.1689 -19.7168 71.1748 -19.7168
h16.3105v323.997h-283.208zM418.241 -30.3154h0.000976562v86.9482h-30.459c-94.9922 0 -172.275 77.2832 -172.275 172.276c0 70.7188 -53.2432 129.237 -121.749 137.573v-396.798h324.482z" />
    <glyph glyph-name="uniF117" unicode="&#xf117;" 
d="M401.066 396.409c9.39551 0 17.0107 -7.61523 17.0107 -17.0107v-426.389c0 -9.39453 -7.61621 -17.0107 -17.0107 -17.0107h-290.133c-9.39453 0 -17.0107 7.61621 -17.0107 17.0107v426.389c0 9.39453 7.61621 17.0107 17.0107 17.0107h74.4766v34.5801
c0 9.39453 7.61621 17.0107 17.0107 17.0107h107.161c9.39453 0 17.0107 -7.61621 17.0107 -17.0107v-34.5801h74.4736zM219.431 413.979v-57.8311h73.1396v57.8311h-73.1396zM384.056 -29.9785v392.366h-57.4639v-23.251c0 -9.39453 -7.61621 -17.0107 -17.0107 -17.0107
h-107.161c-9.39453 0 -17.0107 7.61621 -17.0107 17.0107v23.251h-57.4648v-392.366h256.111zM204.081 91.1885c-6.2627 0 -11.3398 5.07715 -11.3398 11.3398v25.6865c0 21.4785 10.7686 40.4795 27.1816 51.9199c-16.4131 11.4404 -27.1816 30.4424 -27.1816 51.9209
c0 34.8818 28.3779 63.2598 63.2598 63.2598c34.8838 0 63.2617 -28.3779 63.2617 -63.2598c0 -21.4805 -10.7705 -40.4805 -27.1836 -51.9209c16.415 -11.4404 27.1836 -30.4414 27.1836 -51.9199v-25.6865c0 -6.2627 -5.07812 -11.3398 -11.3408 -11.3398h-103.841z
M215.422 232.056c0 -22.376 18.2031 -40.5811 40.5791 -40.5811s40.5811 18.2051 40.5811 40.5811s-18.2051 40.5791 -40.5811 40.5791s-40.5791 -18.2031 -40.5791 -40.5791zM215.422 128.215v-14.3457h81.1602v14.3457c0 22.376 -18.2051 40.5791 -40.5811 40.5791
s-40.5791 -18.2031 -40.5791 -40.5791zM183.709 69.8145h144.583c6.26172 0 11.3398 -5.07715 11.3398 -11.3398c0 -6.26367 -5.07812 -11.3408 -11.3398 -11.3408h-144.583c-6.2627 0 -11.3398 5.07715 -11.3398 11.3408c0 6.2627 5.07715 11.3398 11.3398 11.3398z
M328.293 27.29c6.26172 0 11.3389 -5.07715 11.3389 -11.3398c0 -6.26367 -5.07812 -11.3408 -11.3398 -11.3408h-144.583c-6.2627 0 -11.3398 5.07715 -11.3398 11.3408c0 6.2627 5.07715 11.3398 11.3398 11.3398h144.584z" />
    <glyph glyph-name="uniF110" unicode="&#xf110;" 
d="M487.173 170.042h-74.085v-42.7793h56.8457c10.7119 0 19.3936 -8.68262 19.3936 -19.3936v-152.479c0 -10.7109 -8.68164 -19.3926 -19.3936 -19.3926h-152.479c-10.7119 0 -19.3936 8.68164 -19.3936 19.3926v152.479c0 10.7109 8.68164 19.3936 19.3936 19.3936
h56.8477v42.7793h-236.604v-42.7793h56.8477c10.7119 0 19.3936 -8.68262 19.3936 -19.3936v-152.479c0 -10.7109 -8.68164 -19.3926 -19.3936 -19.3926h-152.479c-10.7119 0 -19.3936 8.68164 -19.3936 19.3926v152.479c0 10.7109 8.68164 19.3936 19.3936 19.3936h56.8457
v42.7793h-74.085c-10.7109 0 -19.3926 8.68164 -19.3926 19.3926c0 10.7119 8.68164 19.3936 19.3926 19.3936h211.78v47.9072h-56.8457c-10.7109 0 -19.3926 8.68164 -19.3926 19.3936v152.478c0 10.7119 8.68164 19.3936 19.3926 19.3936h152.479
c10.7109 0 19.3926 -8.68164 19.3926 -19.3936v-152.478c0 -10.7119 -8.68164 -19.3936 -19.3926 -19.3936h-56.8457v-47.9072h211.778c10.7109 0 19.3926 -8.68164 19.3926 -19.3936c0 -10.7109 -8.68164 -19.3926 -19.3926 -19.3926zM199.155 409.214v-113.691h113.691
v113.691h-113.691zM175.153 -25.2139v113.691h-113.694v-113.691h113.694zM450.541 -25.2139v113.691h-113.694v-113.691h113.694z" />
    <glyph glyph-name="uniF10E" unicode="&#xf10e;" 
d="M255.972 20.623c9.64941 0 17.4717 -7.82031 17.4717 -17.4717v-49.6748c0 -9.64941 -7.82031 -17.4717 -17.4717 -17.4717c-9.64844 0 -17.4707 7.82227 -17.4707 17.4717v49.6748c0 9.64844 7.82227 17.4717 17.4707 17.4717zM255.972 363.37
c-9.64844 0 -17.4707 7.82227 -17.4707 17.4717v49.6797c0 9.64941 7.82227 17.4717 17.4707 17.4717c9.65137 0 17.4717 -7.82227 17.4717 -17.4717v-49.6797c0 -9.64941 -7.82031 -17.4717 -17.4717 -17.4717zM110.115 70.8271
c6.82324 6.81836 17.8838 6.81836 24.709 -0.0078125c6.82129 -6.82324 6.81836 -17.8857 -0.00683594 -24.707l-35.1387 -35.1201c-3.41309 -3.4082 -7.88086 -5.11328 -12.3516 -5.11328c-4.47266 0 -8.94531 1.70801 -12.3584 5.12012
c-6.82031 6.82324 -6.81836 17.8867 0.0078125 24.708zM389.518 308.071c-4.47266 0 -8.94531 1.70508 -12.3555 5.12109c-6.82129 6.82324 -6.81934 17.8857 0.00390625 24.707l35.1348 35.1201c6.8252 6.8252 17.8857 6.82324 24.709 -0.00292969
c6.82129 -6.8252 6.81836 -17.8857 -0.00488281 -24.709l-35.1338 -35.1201c-3.41309 -3.41113 -7.88281 -5.11621 -12.3535 -5.11621zM84.6182 191.995c0 -9.64844 -7.82227 -17.4717 -17.4717 -17.4717h-49.6748c-9.64941 0 -17.4717 7.82324 -17.4717 17.4717
c0 9.64941 7.82227 17.4717 17.4717 17.4717h49.6748c9.64941 0 17.4717 -7.82227 17.4717 -17.4717zM494.528 209.467c9.65137 0 17.4717 -7.8252 17.4717 -17.4717c0 -9.64844 -7.82031 -17.4717 -17.4717 -17.4717h-49.6982
c-9.65137 0 -17.4717 7.82324 -17.4717 17.4717c0 9.64941 7.82031 17.4717 17.4717 17.4717h49.6982zM110.11 313.188l-35.1201 35.1221c-6.82324 6.82129 -6.82324 17.8838 0 24.707c6.82129 6.82324 17.8838 6.82324 24.707 0l35.1201 -35.1201
c6.82324 -6.82324 6.82324 -17.8857 0 -24.709c-3.41016 -3.41113 -7.88281 -5.11621 -12.3535 -5.11621s-8.94336 1.70508 -12.3535 5.11621zM401.892 70.8223l35.1162 -35.1201c6.82324 -6.82129 6.82324 -17.8838 -0.00292969 -24.707
c-3.41016 -3.41113 -7.88281 -5.11621 -12.3535 -5.11621c-4.47266 0 -8.94238 1.70508 -12.3555 5.11816l-35.1152 35.1201c-6.82324 6.82129 -6.82324 17.8838 0.00195312 24.707c6.82324 6.82324 17.8857 6.82129 24.709 -0.00195312zM255.99 327.987
c74.9863 0 135.994 -61.0068 135.994 -135.992c0 -74.9834 -61.0059 -135.986 -135.994 -135.986c-74.9805 0 -135.981 61.0029 -135.981 135.986c0 74.9854 61.001 135.992 135.981 135.992zM255.99 90.9512c55.7207 0 101.051 45.3281 101.051 101.044
c0 55.7178 -45.3301 101.049 -101.051 101.049c-55.7129 0 -101.039 -45.3311 -101.039 -101.049c0 -55.7158 45.3262 -101.044 101.039 -101.044z" />
    <glyph glyph-name="uniF109" unicode="&#xf109;" 
d="M460.806 258.592c3.31543 -7.09473 2.22656 -15.4688 -2.79688 -21.4766l-245.643 -293.879c-3.93457 -4.70605 -9.6543 -7.2334 -15.4844 -7.2334c-3.06543 0 -6.16113 0.699219 -9.04395 2.14551c-8.36621 4.20117 -12.7412 13.6074 -10.5625 22.7129l36.5645 152.927
h-144.375c-7.18262 0 -13.8223 3.82227 -17.4346 10.0312c-3.61133 6.20898 -3.64648 13.8711 -0.09375 20.1123l167.25 293.876c3.58398 6.30078 10.2773 10.1924 17.5283 10.1924h138.306c7.18262 0 13.8252 -3.82129 17.4365 -10.0303
c3.61133 -6.20996 3.64648 -13.8711 0.09375 -20.1152l-84.0244 -147.635h134.009c7.83105 0 14.9551 -4.53418 18.2705 -11.6279zM236.47 34.9678l162.92 194.914h-125.551c-7.18066 0 -13.8223 3.82129 -17.4346 10.0303
c-3.61133 6.20898 -3.64648 13.8711 -0.09375 20.1152l84.0244 147.635h-91.8906l-144.294 -253.538h135.248c6.17383 0 12.0098 -2.8291 15.834 -7.6748c3.82422 -4.84668 5.2168 -11.1797 3.7832 -17.1846z" />
    <glyph glyph-name="uniF100" unicode="&#xf100;" 
d="M455.593 395.933c4.79102 0 8.67871 -3.87988 8.67871 -8.67871s-3.8877 -8.67773 -8.67871 -8.67773h-399.186c-4.79102 0 -8.67871 3.87891 -8.67871 8.67773s3.8877 8.67871 8.67871 8.67871h104.508c0.955078 10.8467 4.2959 29.1406 15.7334 40.8818
c7.2373 7.41895 16.4189 11.1855 27.2842 11.1855h86.7705c10.8652 0 20.0459 -3.7666 27.2832 -11.1855c11.4375 -11.7412 14.7793 -30.0352 15.7334 -40.8818h121.873zM189.11 424.734c-6.97754 -7.1416 -9.78027 -19.708 -10.752 -28.8018h137.928
c-0.972656 9.09375 -3.77539 21.6602 -10.7607 28.8018c-3.8877 3.97461 -8.73926 5.91016 -14.8223 5.91016h-86.7705c-6.08398 0 -10.9346 -1.93555 -14.8223 -5.91016zM90.7363 -20.792l-15.8975 382.013h362.322l-15.9062 -382.195
c-0.3125 -14.7617 -9.61523 -43.0254 -42.583 -43.0254h-245.344c-32.9678 0 -42.2705 28.2637 -42.5918 43.208zM419.067 343.864h-326.135l15.1514 -364.11c0.0957031 -2.82031 1.51855 -26.3984 25.2441 -26.3984h245.344c23.9854 0 25.1836 23.5352 25.2354 26.2168z
M151.864 -20.6104c-4.79004 0 -8.67773 3.87891 -8.67773 8.67773c0 4.7998 3.8877 8.67871 8.67773 8.67871h208.271c4.79004 0 8.67773 -3.87891 8.67773 -8.67871c0 -4.79883 -3.8877 -8.67773 -8.67773 -8.67773h-208.271zM151.864 22.7793
c-4.79004 0 -8.67773 3.87988 -8.67773 8.67871s3.8877 8.67773 8.67773 8.67773h208.271c4.79004 0 8.67773 -3.87891 8.67773 -8.67773s-3.8877 -8.67871 -8.67773 -8.67871h-208.271zM151.864 66.1699c-4.79004 0 -8.67773 3.87891 -8.67773 8.67773
s3.8877 8.67773 8.67773 8.67773h208.271c4.79004 0 8.67773 -3.87891 8.67773 -8.67773s-3.8877 -8.67773 -8.67773 -8.67773h-208.271z" />
    <glyph glyph-name="uniF108" unicode="&#xf108;" 
d="M340.965 337.102c0 -9.75391 -7.90723 -17.6611 -17.6602 -17.6611h-305.644c-9.75391 0 -17.6611 7.90723 -17.6611 17.6611s7.90723 17.6611 17.6611 17.6611h305.644c9.75293 0 17.6602 -7.90723 17.6602 -17.6611zM494.339 282.212
c9.75391 0 17.6611 -7.90723 17.6611 -17.6611s-7.90723 -17.6611 -17.6611 -17.6611h-356.273c-9.75391 0 -17.6611 7.90723 -17.6611 17.6611s7.90723 17.6611 17.6611 17.6611h356.273zM410.979 174.342h-358.124c-9.75391 0 -17.6611 7.90723 -17.6611 17.6602
c0 9.75391 7.90723 17.6611 17.6611 17.6611h358.124c9.75391 0 17.6611 -7.90723 17.6611 -17.6611c0 -9.75293 -7.90723 -17.6602 -17.6611 -17.6602zM469.64 137.112c9.75391 0 17.6611 -7.90723 17.6611 -17.6611c0 -9.75293 -7.90723 -17.6602 -17.6611 -17.6602
h-357.508c-9.75293 0 -17.6602 7.90723 -17.6602 17.6602c0 9.75391 7.90723 17.6611 17.6602 17.6611h357.508zM296.135 64.5596c9.75391 0 17.6611 -7.90723 17.6582 -17.6611c0 -9.75391 -7.90723 -17.6611 -17.6602 -17.6611h-237.104
c-9.75293 0 -17.6602 7.90723 -17.6602 17.6611s7.90723 17.6611 17.6602 17.6611h237.105z" />
    <glyph glyph-name="uniF10D" unicode="&#xf10d;" 
d="M377.542 363.124c70.5977 0 128.036 -56.3154 128.033 -125.539c0 -69.2207 -57.4375 -125.539 -128.035 -125.539h-270.345c-55.5664 0 -100.773 44.3594 -100.773 98.8818c0 51.9609 41.0586 94.6885 93.0078 98.5947
c-0.00195312 0.267578 -0.00195312 0.532227 -0.00195312 0.799805c0 75.915 63.0088 137.678 140.459 137.678c56.8154 0 108.333 -34.3857 129.805 -85.1123c2.61621 0.158203 5.23633 0.236328 7.85059 0.236328zM377.542 144.924
c52.4688 0 95.1582 41.5674 95.1553 92.6611c0 51.0928 -42.6885 92.6611 -95.1572 92.6611c-5.40527 0 -10.834 -0.449219 -16.1387 -1.33887c-8.13672 -1.37207 -16.0225 3.51367 -18.4385 11.4023c-13.4775 44.0479 -55.8633 74.8125 -103.076 74.8125
c-59.3213 0 -107.581 -47.0137 -107.579 -104.798c0 -4.89453 0.385742 -10.0205 1.14648 -15.2354c0.736328 -5.05664 -0.916016 -10.168 -4.47852 -13.8311c-3.56152 -3.66406 -8.62207 -5.4707 -13.6963 -4.87012c-3.20312 0.373047 -5.77148 0.547852 -8.08203 0.547852
c-37.4365 0 -67.8945 -29.6113 -67.8945 -66.0078c0 -36.3936 30.458 -66.0039 67.8945 -66.0039h270.345zM86.7998 16.748c-3.21094 -3.20898 -7.41699 -4.81348 -11.623 -4.81738c-4.20605 0 -8.41504 1.60645 -11.624 4.81543
c-6.41992 6.41992 -6.41992 16.8291 0 23.249l47.0947 47.0947c6.41797 6.41992 16.8271 6.41992 23.2471 0c6.41992 -6.41797 6.41992 -16.8271 0 -23.2471zM187.271 16.748c-3.20898 -3.20898 -7.41699 -4.81348 -11.6279 -4.81543
c-4.20605 0 -8.41211 1.60449 -11.623 4.81348c-6.41797 6.41992 -6.41992 16.8291 0 23.249l47.0898 47.0947c6.41992 6.41992 16.8271 6.42188 23.249 0.00195312c6.41992 -6.41992 6.42285 -16.8291 0.00195312 -23.249zM287.737 16.748
c-3.20898 -3.20898 -7.41699 -4.81348 -11.626 -4.81543c-4.20605 0 -8.41211 1.60449 -11.623 4.81348c-6.41797 6.41992 -6.41992 16.8291 0 23.249l47.0898 47.0947c6.41992 6.41992 16.8271 6.42188 23.249 0.00195312c6.41797 -6.41992 6.41992 -16.8291 0 -23.249z
M412.049 87.0918c6.41992 6.41992 16.8291 6.41992 23.2471 -0.00195312c6.41992 -6.41797 6.41992 -16.8271 0 -23.2471l-47.0947 -47.0947c-3.20898 -3.21094 -7.41699 -4.81543 -11.623 -4.81543s-8.41504 1.60645 -11.624 4.81543
c-6.41992 6.41992 -6.41992 16.8291 0 23.249zM117.545 11.1592c6.41992 6.41992 16.8291 6.41992 23.2471 0.00195312c6.41992 -6.41992 6.42285 -16.8291 0.00292969 -23.249l-47.0908 -47.0947c-3.21094 -3.21094 -7.41699 -4.81543 -11.625 -4.81543
c-4.20605 0 -8.41309 1.60449 -11.624 4.81348c-6.41797 6.41992 -6.41992 16.8291 0 23.249zM218.308 11.1592c6.41992 6.41992 16.8271 6.41992 23.251 0.00195312c6.41797 -6.41992 6.41992 -16.8291 0 -23.249l-47.0898 -47.0947
c-3.21094 -3.21094 -7.41895 -4.81543 -11.626 -4.81543c-4.20605 0 -8.41211 1.60449 -11.623 4.81348c-6.41992 6.41992 -6.42188 16.8291 -0.00195312 23.249zM319.07 11.1592c6.41992 6.41992 16.8262 6.41992 23.2461 0.00195312
c6.41992 -6.41992 6.42285 -16.8291 0.00292969 -23.249l-47.0908 -47.0947c-3.21094 -3.21094 -7.41895 -4.81543 -11.625 -4.81543s-8.41309 1.60449 -11.624 4.81348c-6.41699 6.41992 -6.41992 16.8291 0 23.249z" />
    <glyph glyph-name="uniF112" unicode="&#xf112;" 
d="M503.493 356.681c18.6895 -50.8945 6.00195 -108.544 -32.3203 -146.866c-37.749 -37.749 -94.042 -50.3633 -143.879 -33.3691l-222.457 -222.457c-11.6006 -11.5986 -27.0195 -17.9883 -43.4258 -17.9883c-16.4053 0 -31.8262 6.38965 -43.4248 17.9902
c-11.5967 11.5947 -17.9863 27.0176 -17.9863 43.4238c0 16.4033 6.38965 31.8262 17.9883 43.4229l222.455 222.457c-16.9951 49.8389 -4.38281 106.128 33.3691 143.879c38.3262 38.3242 95.9775 51.0078 146.87 32.3203
c6.38086 -2.34375 11.125 -7.77734 12.5859 -14.4141c1.46094 -6.6377 -0.564453 -13.5625 -5.36914 -18.3691l-63.7021 -63.7002l9.13379 -33.6768l33.6768 -9.13281l63.7021 63.7021c4.52832 4.52734 10.959 6.59863 17.2754 5.57617
c6.32129 -1.02441 11.7607 -5.02539 14.624 -10.751c0.330078 -0.666016 0.628906 -1.35156 0.883789 -2.04688zM443.004 237.982c19.0791 19.0801 29.2666 44.8672 29.1758 71.0518l-45.1631 -45.1621c-5.0459 -5.04395 -12.4043 -7.00488 -19.2959 -5.13965
l-55.835 15.1426c-6.82715 1.85254 -12.1602 7.18359 -14.0107 14.0107l-15.1426 55.835c-1.86914 6.88965 0.0908203 14.252 5.13965 19.2979l45.1621 45.1631h-0.351562c-26.0654 0 -51.707 -10.1826 -70.7021 -29.1777
c-29.3789 -29.3789 -37.4541 -74.4707 -20.0947 -112.206c3.4834 -7.57324 1.88281 -16.5146 -4.0127 -22.4102l-231.719 -231.719c-4.07422 -4.07422 -6.31836 -9.49219 -6.31836 -15.2549c0 -5.76562 2.24414 -11.1836 6.31836 -15.2578
c4.07617 -4.07422 9.49414 -6.32031 15.2568 -6.32031c5.76367 0 11.1807 2.24414 15.2578 6.32031l231.719 231.717c5.89355 5.89355 14.832 7.48926 22.4072 4.0127c37.7383 -17.3623 82.8301 -9.2793 112.209 20.0967z" />
    <glyph glyph-name="uniF10B" unicode="&#xf10b;" 
d="M366.607 341.362c0 6.94434 -3.56836 13.0654 -8.96191 16.6436v-38.083c17.8242 -4.84863 30.9717 -21.1641 30.9717 -40.5029c0 -19.3379 -13.1475 -35.6543 -30.9717 -40.5029v-4.81836c0 -6.07812 -4.92773 -11.0049 -11.0049 -11.0049
s-11.0059 4.92676 -11.0059 11.0049v4.81836c-17.8232 4.84766 -30.9717 21.1641 -30.9717 40.502c0 6.07812 4.92871 11.0049 11.0059 11.0049s11.0049 -4.92676 11.0049 -11.0049c0 -6.94434 3.56738 -13.0635 8.96094 -16.6426v38.083
c-17.8232 4.84863 -30.9717 21.165 -30.9717 40.5029c0 19.3389 13.1484 35.6543 30.9717 40.5039v4.81738c0 6.07812 4.92871 11.0059 11.0059 11.0059s11.0049 -4.92773 11.0049 -11.0059v-4.81738c17.8242 -4.84961 30.9717 -21.165 30.9717 -40.5039
c0 -6.07812 -4.92773 -11.0049 -11.0049 -11.0049s-11.0049 4.92676 -11.0049 11.0049zM326.674 341.362c0 -6.94434 3.56738 -13.0654 8.96094 -16.6436v33.2871c-5.39453 -3.5791 -8.96094 -9.69922 -8.96094 -16.6436zM366.607 279.419
c0 6.94336 -3.56836 13.0645 -8.96191 16.6436v-33.2861c5.39453 3.5791 8.96191 9.69824 8.96191 16.6426zM209.403 137.91c0 -30.6992 -15.3252 -57.8701 -38.708 -74.3193c23.3848 -16.4482 38.709 -43.6182 38.709 -74.3174v-36.7666
c0 -9.11719 -7.39062 -16.5078 -16.5078 -16.5078h-148.637c-9.11719 0 -16.5078 7.39062 -16.5078 16.5078v36.7666c0 30.6992 15.3242 57.8691 38.709 74.3174c-23.3848 16.4482 -38.709 43.6201 -38.709 74.3193c0 50.0811 40.7432 90.8252 90.8252 90.8252
s90.8262 -40.7441 90.8262 -90.8252zM176.388 -10.7266c0 31.8779 -25.9346 57.8115 -57.8115 57.8096c-31.877 0 -57.8105 -25.9326 -57.8105 -57.8096v-20.2588h115.622v20.2588zM118.577 80.0996c31.876 0 57.8105 25.9346 57.8105 57.8115
c0 31.876 -25.9336 57.8096 -57.8105 57.8096s-57.8105 -25.9326 -57.8105 -57.8096c0 -31.8779 25.9336 -57.8115 57.8105 -57.8115zM346.641 448c75.8779 0 137.608 -61.7314 137.61 -137.61c0 -54.3232 -32.084 -103.695 -81.7363 -125.779
c-2.72656 -1.21191 -88.5498 -34.1943 -139.467 -53.7471c-1.91992 -0.737305 -3.92383 -1.09766 -5.91504 -1.09766c-3.83594 0 -7.61914 1.33789 -10.6465 3.89062c-4.60059 3.88086 -6.72363 9.95508 -5.54395 15.8555l12.0176 60.083
c-28.0391 26.0127 -43.9287 62.2061 -43.9287 100.796c0 75.8779 61.7314 137.609 137.609 137.609zM389.265 214.853c37.6514 16.8242 61.9697 54.3047 61.9697 95.5381c0 57.6738 -46.9209 104.594 -104.594 104.594c-57.6738 0 -104.594 -46.9199 -104.595 -104.594
c0 -31.9375 14.3252 -61.7188 39.3018 -81.707c4.81836 -3.85547 7.08398 -10.0752 5.87402 -16.126l-8.02539 -40.1221c49.3242 18.9521 105.779 40.6758 110.068 42.417z" />
    <glyph glyph-name="uniF115" unicode="&#xf115;" 
d="M393.371 241.167c65.4131 0 118.629 -53.2148 118.629 -118.624c0 -79.4346 -64.623 -144.06 -144.055 -144.06h-351.007c-9.35449 0 -16.9385 7.58203 -16.9385 16.9385s7.58398 16.9385 16.9385 16.9385h351.007c60.752 0 110.178 49.4277 110.178 110.183
c0 46.7295 -38.0186 84.748 -84.752 84.748c-35.5215 0 -64.418 -28.8945 -64.418 -64.4131c0 -26.5479 21.5957 -48.1455 48.1416 -48.1455c9.35352 0 16.9375 -7.58203 16.9375 -16.9385s-7.58398 -16.9385 -16.9375 -16.9385
c-45.2236 0 -82.0176 36.7949 -82.0176 82.0225c0 54.1982 44.0938 98.2891 98.2939 98.2891zM16.9385 105.688c-9.35449 0 -16.9385 7.58105 -16.9385 16.9375c0 9.35742 7.58398 16.9385 16.9385 16.9385h157.84c34.4707 0 62.5137 28.043 62.5137 62.5137
c0 25.7031 -20.915 46.6162 -46.6211 46.6162c-18.6973 0 -33.9082 -15.2129 -33.9082 -33.9082c0 -13.0869 10.6484 -23.7354 23.7363 -23.7354c9.35449 0 16.9385 -7.58203 16.9385 -16.9385c0 -9.35742 -7.58398 -16.9385 -16.9385 -16.9385
c-31.7676 0 -57.6123 25.8457 -57.6123 57.6123c0 37.3779 30.4072 67.7852 67.7842 67.7852c44.3877 0 80.498 -36.1104 80.498 -80.4932c0 -53.1504 -43.2402 -96.3896 -96.3906 -96.3896h-157.84zM294.505 268.903c-8.10547 0 -14.6797 6.57227 -14.6797 14.6797
c0 8.1084 6.57227 14.6797 14.6797 14.6797h118.384c24.7637 0 44.9092 20.1455 44.9092 44.9092c0 18.1875 -14.7979 32.9844 -32.9893 32.9844c-12.9316 0 -23.4541 -10.5195 -23.4541 -23.4531c0 -8.72656 7.09863 -15.8271 15.8223 -15.8271
c8.1084 0 14.6807 -6.57227 14.6807 -14.6807c0 -8.10742 -6.57227 -14.6797 -14.6807 -14.6797c-24.9121 0 -45.1816 20.2725 -45.1816 45.1875c0 29.1221 23.6904 52.8135 52.8135 52.8135c34.3779 0 62.3486 -27.9668 62.3486 -62.3447
c0 -40.9521 -33.3164 -74.2686 -74.2686 -74.2686h-118.384z" />
    <glyph glyph-name="uniF101" unicode="&#xf101;" 
d="M380.552 225.228c7.31445 -7.41895 7.31445 -19.3301 0 -26.6445c-3.65723 -3.65723 -8.46387 -5.53809 -13.2705 -5.53809c-4.80566 0 -9.6123 1.88086 -13.2695 5.53809l-79.2031 79.2031v-205.113c0 -10.3447 -8.46387 -18.8086 -18.8086 -18.8086
s-18.8086 8.46387 -18.8086 18.8086v205.009l-79.2031 -79.2031c-7.41895 -7.31445 -19.3301 -7.31445 -26.6445 0c-7.31445 7.41895 -7.31445 19.3301 0 26.6445l111.281 111.282c7.41895 7.31348 19.3311 7.31348 26.6455 0zM256 16.666
c10.3447 0 18.8086 -8.46387 18.8086 -18.8076v-43.0498c0 -10.3447 -8.46387 -18.8086 -18.8086 -18.8086s-18.8086 8.46387 -18.8086 18.8086v43.0498c0 10.3438 8.46387 18.8076 18.8086 18.8076zM457.874 448c10.3447 0 18.8086 -8.46387 18.8086 -18.8086v-124.447
c0 -10.3438 -8.46387 -18.8076 -18.8086 -18.8076c-10.4482 0 -18.8076 8.35938 -18.9121 18.8076v105.64h-366.028v-105.64c0 -10.3438 -8.46387 -18.8076 -18.8076 -18.8076c-10.3447 0 -18.8086 8.46387 -18.8086 18.8076v124.447
c0 10.3447 8.46387 18.8086 18.8086 18.8086h403.748z" />
    <glyph glyph-name="uniF107" unicode="&#xf107;" 
d="M486.201 58.8535c3.11523 -7.52344 1.9834 -16.1367 -2.96973 -22.5986c-27.2627 -35.6045 -63.6133 -63.5127 -105.123 -80.708c-31.3115 -12.9697 -64.2334 -19.5439 -97.8545 -19.5439h-0.00292969c-103.931 0 -196.787 62.0459 -236.562 158.072
c-26.1611 63.166 -26.168 132.735 -0.0126953 195.898c26.1592 63.1719 75.3564 112.369 138.528 138.537c31.2236 12.9326 64.0967 19.4893 97.709 19.4893c11.2109 0 22.5469 -0.750977 33.6973 -2.22656c8.07129 -1.07422 14.9619 -6.36523 18.0781 -13.8887
c3.11523 -7.52441 1.98633 -16.1396 -2.9668 -22.6045c-45.5684 -59.5127 -56.0918 -139.414 -27.4668 -208.521c28.623 -69.1045 92.5645 -118.156 166.868 -128.017c8.07129 -1.07422 14.959 -6.36426 18.0781 -13.8887zM360.646 -2.29492
c22.4375 9.29492 43.0371 22.3955 60.8809 38.5957c-72.6611 22.0752 -132.945 75.7852 -162.438 146.992c-29.499 71.2188 -24.8438 151.841 10.9375 218.837c-24.1475 -1.13184 -47.7715 -6.42773 -70.3574 -15.7832c-51.9092 -21.501 -92.333 -61.9277 -113.831 -113.833
c-21.4912 -51.9004 -21.4883 -109.069 0.0126953 -160.976c32.6875 -78.9121 108.996 -129.902 194.404 -129.902c27.5967 -0.00292969 54.6436 5.40625 80.3916 16.0693z" />
    <glyph glyph-name="uniF106" unicode="&#xf106;" 
d="M400.264 192c0 -10.0947 -8.18164 -18.2783 -18.2754 -18.2783h-336.043c-10.0967 0 -18.2773 8.18359 -18.2773 18.2783s8.18066 18.2783 18.2773 18.2783h336.04c10.0967 0 18.2783 -8.18359 18.2783 -18.2783zM443.606 317.138
c10.0967 0 18.2783 -8.18359 18.2783 -18.2783c0 -10.0938 -8.18164 -18.2773 -18.2783 -18.2773h-356.579c-10.0947 0 -18.2783 8.18359 -18.2783 18.2773c0 10.0947 8.18359 18.2783 18.2783 18.2783h356.579zM406.627 103.423
c10.0967 0 18.2773 -8.18359 18.2803 -18.2773c0 -10.0947 -8.18164 -18.2783 -18.2783 -18.2783h-237.725c-10.0967 0 -18.2773 8.18359 -18.2773 18.2783c0 10.0938 8.18066 18.2773 18.2773 18.2773h237.723zM307.593 -3.43945
c10.0938 0 18.2773 -8.18359 18.2773 -18.2773c0 -10.0947 -8.18066 -18.2783 -18.2773 -18.2783h-77.7744c-10.0938 0 -18.2773 8.18359 -18.2773 18.2783c0 10.0938 8.18359 18.2773 18.2773 18.2773h77.7744zM493.722 423.995
c10.0947 0 18.2783 -8.18359 18.2783 -18.2783c0 -10.0938 -8.18164 -18.2773 -18.2783 -18.2773h-475.443c-10.0967 0 -18.2783 8.18359 -18.2783 18.2773c0 10.0947 8.18164 18.2783 18.2783 18.2783h475.443z" />
    <glyph glyph-name="uniF102" unicode="&#xf102;" 
d="M471.309 87.8662c8.35449 -4.8252 11.2197 -15.5107 6.39746 -23.8643c-3.23535 -5.60254 -9.1084 -8.73828 -15.1475 -8.73828c-2.96289 0 -5.96582 0.754883 -8.71875 2.34375l-52.0088 30.0283l-0.484375 -52.3369
c-0.0888672 -9.59277 -7.89453 -17.3115 -17.4697 -17.3115c-0.0537109 0 -0.109375 0 -0.163086 0.00292969c-9.64941 0.0878906 -17.3994 7.9834 -17.3105 17.6328l0.666016 72.082l-36.5283 21.0869l-57.0684 -32.9521v-42.1748l62.75 -35.4658
c8.40039 -4.74707 11.3613 -15.4053 6.61426 -23.8076c-3.21289 -5.68457 -9.13184 -8.87891 -15.2266 -8.87891c-2.91211 0 -5.86621 0.729492 -8.58203 2.26465l-45.5576 25.7471v-60.0547c0 -9.64941 -7.82031 -17.4717 -17.4717 -17.4717
s-17.4717 7.82227 -17.4717 17.4717v60.0547l-45.5576 -25.7471c-2.7168 -1.53516 -5.6709 -2.26465 -8.58301 -2.26465c-6.09375 0 -12.0137 3.19434 -15.2256 8.87891c-4.74805 8.40234 -1.78418 19.0605 6.61328 23.8076l62.7529 35.4658v42.1777l-57.0664 32.9492
l-36.5322 -21.0918l0.649414 -72.085c0.0869141 -9.64844 -7.66602 -17.541 -17.3154 -17.6279c-0.0517578 -0.00195312 -0.107422 -0.00195312 -0.158203 -0.00195312c-9.57715 0 -17.3838 7.7207 -17.4697 17.3154l-0.470703 52.3252l-51.999 -30.0215
c-2.74902 -1.58594 -5.75586 -2.34375 -8.71973 -2.34375c-6.03809 0 -11.9082 3.13379 -15.1465 8.73828c-4.8252 8.35645 -1.96191 19.042 6.39453 23.8672l51.9961 30.0215l-45.0703 26.5732c-8.30957 4.90137 -11.0771 15.6133 -6.17578 23.9248
c4.90625 8.3125 15.6152 11.0771 23.9248 6.17578l62.084 -36.6094l36.5371 21.0967v65.8955l-36.5186 21.085l-62.1045 -36.6025c-2.78418 -1.64062 -5.84082 -2.4209 -8.85449 -2.4209c-5.98535 0 -11.8115 3.0752 -15.0684 8.60352
c-4.90137 8.31445 -2.13379 19.0254 6.18066 23.9248l45.082 26.5693l-52.0127 30.0303c-8.35645 4.8252 -11.2197 15.5107 -6.39453 23.8672c4.81934 8.35547 15.5029 11.2217 23.8662 6.39453l51.999 -30.0244l0.470703 52.3203
c0.0859375 9.59863 7.89453 17.3164 17.4697 17.3164h0.158203c9.65137 -0.0859375 17.4023 -7.97852 17.3154 -17.6279l-0.647461 -72.0781l36.5332 -21.0918l57.0635 32.9453v42.1729l-62.7529 35.4648c-8.40039 4.74805 -11.3613 15.4082 -6.61328 23.8086
c4.74512 8.40039 15.4053 11.3662 23.8086 6.61426l45.5576 -25.7471v60.0596c0 9.64844 7.82031 17.4717 17.4717 17.4717s17.4717 -7.82324 17.4717 -17.4717v-60.0596l45.5557 25.749c8.39746 4.75 19.0605 1.78711 23.8076 -6.61328
c4.74805 -8.40332 1.78516 -19.0615 -6.61328 -23.8086l-62.75 -35.4658v-42.168l57.0654 -32.9502l36.5283 21.0898l-0.647461 72.0801c-0.0859375 9.64941 7.66406 17.542 17.3154 17.6279c9.63281 0.147461 17.542 -7.66406 17.6279 -17.3135l0.470703 -52.3252
l52.0059 30.0264c8.35449 4.8252 19.0449 1.96191 23.8672 -6.39453c4.82422 -8.35645 1.96094 -19.042 -6.39551 -23.8662l-52.0127 -30.0312l45.0752 -26.5693c8.3125 -4.90137 11.0801 -15.6123 6.17871 -23.9248c-3.25977 -5.52832 -9.08594 -8.60254 -15.0684 -8.60254
c-3.0166 0 -6.07031 0.777344 -8.85645 2.41992l-62.0977 36.6025l-36.5146 -21.083v-65.8965l36.5352 -21.0928l62.0742 36.6055c8.31738 4.89648 19.0234 2.13574 23.9277 -6.17578c4.90137 -8.3125 2.13574 -19.0234 -6.17578 -23.9248l-45.0664 -26.5742z
M198.934 224.946v-65.8926l57.0703 -32.9521l57.0654 32.9521v65.8926l-57.0654 32.9521z" />
    <glyph glyph-name="uniF111" unicode="&#xf111;" 
d="M440.762 206.649c4.21973 -3.63281 6.65039 -8.92383 6.65234 -14.4932v-237.039c0 -10.5596 -8.55859 -19.1172 -19.1172 -19.1172h-344.59c-10.5586 0 -19.1172 8.55762 -19.1172 19.1172v237.039c0 5.56934 2.43066 10.8604 6.65137 14.4932l172.293 148.212
c7.16895 6.16406 17.7646 6.16406 24.9336 0zM277.455 -25.7656v107.072h-38.1367v-107.072h38.1367zM409.178 -25.7656h-0.00195312v209.149l-153.177 131.768l-153.177 -131.768v-209.149h98.2617v126.189c0 10.5586 8.55859 19.1172 19.1172 19.1172h76.3701
c10.5596 0 19.1172 -8.55859 19.1172 -19.1172v-126.189h93.4893zM485.644 256.553c8.00391 -6.88574 8.91113 -18.957 2.02441 -26.959c-3.78027 -4.39453 -9.12695 -6.65039 -14.501 -6.65039c-4.41406 0 -8.84961 1.52051 -12.458 4.62402l-204.71 176.098
l-204.71 -176.098c-8.00586 -6.88184 -20.0732 -5.97754 -26.959 2.02637c-6.88477 8.00195 -5.97949 20.0732 2.02637 26.959l217.178 186.823c7.16895 6.16406 17.7646 6.16406 24.9336 0z" />
    <glyph glyph-name="uniF10F" unicode="&#xf10f;" 
d="M288.886 141.762c39.5771 0 71.7754 -32.1973 71.7754 -71.7744c0 -37.0537 -30.1455 -67.1992 -67.1992 -67.1992c-34.7344 0 -62.9932 28.2578 -62.9932 62.9922h30c0 -18.1924 14.7998 -32.9922 32.9932 -32.9922c20.5117 0 37.1992 16.6875 37.1992 37.1992
c0 23.0352 -18.7402 41.7744 -41.7754 41.7744h-206.227v30h206.227zM410.329 381.212c56.0615 0 101.671 -45.6104 101.671 -101.672c0 -60.251 -49.0176 -109.268 -109.269 -109.268h-402.731v30h402.731c43.709 0 79.2686 35.5596 79.2686 79.2686
c0 39.5195 -32.1523 71.6709 -71.6709 71.6709c-35.668 0 -64.6865 -29.0176 -64.6865 -64.6855h-30c0 52.21 42.4766 94.6855 94.6865 94.6855zM235.895 345.564c31.1904 0 56.5645 -25.375 56.5645 -56.5645c0 -33.1992 -27.0078 -60.208 -60.207 -60.208h-149.593v30
h149.593c16.6572 0 30.207 13.5508 30.207 30.208c0 14.6484 -11.916 26.5645 -26.5645 26.5645c-12.7998 0 -23.2139 -10.4141 -23.2139 -23.2148h-30c0 29.3428 23.8721 53.2148 53.2139 53.2148z" />
    <glyph glyph-name="uniF10C" unicode="&#xf10c;" 
d="M479.224 142.854c0 -64.3096 -51.5547 -116.771 -115.517 -118.339c-31.4912 -54.168 -90.3848 -88.5117 -153.557 -88.5117c-97.8066 0 -177.377 79.5654 -177.377 177.366c0 90.4912 144.324 302.094 160.782 325.923c3.76465 5.4541 9.96875 8.70801 16.5947 8.70801
s12.8301 -3.25391 16.5977 -8.70508c0.5 -0.725586 44.4424 -64.5029 85.7754 -136.985c15.3604 24.7646 28.126 43.4473 31.6465 48.5459c3.76465 5.45312 9.96875 8.70703 16.5947 8.70703c6.62891 0 12.833 -3.25391 16.5977 -8.7041
c10.4258 -15.0947 101.861 -149.151 101.861 -208.005zM210.153 -23.6621c43.4951 0 84.3574 21.084 109.97 55.2852c-45.3398 16.6162 -77.7803 60.2051 -77.7803 111.23c0 29.1836 22.4795 76.8545 46.4102 119.347c-28.1748 51.3184 -59.8613 100.944 -78.6455 129.472
c-49.5059 -74.9883 -136.993 -219.665 -136.993 -278.306c0 -75.5586 61.4746 -137.028 137.039 -137.028zM360.768 64.7754c43.0752 0 78.1182 35.0264 78.1182 78.0781c0 30.0059 -42.8252 105.845 -78.1133 160.241c-10.0732 -15.5381 -20.7578 -32.8242 -30.8877 -50.29
c-0.366211 -0.723633 -0.763672 -1.43066 -1.21582 -2.1084c-24.8271 -43.0273 -45.9883 -86.7676 -45.9883 -107.843c0 -43.0518 35.0303 -78.0781 78.0869 -78.0781z" />
    <glyph glyph-name="uniF103" unicode="&#xf103;" 
d="M204.674 67.373c7.71582 0 13.9668 -6.25293 13.9668 -13.9668v-39.7129c0 -7.71289 -6.25293 -13.9668 -13.9668 -13.9668c-7.71484 0 -13.9668 6.25391 -13.9668 13.9668v39.7129c0 7.71387 6.25195 13.9668 13.9668 13.9668zM204.674 341.37
c-7.71289 0 -13.9668 6.25391 -13.9668 13.9678v39.7119c0 7.71387 6.25195 13.9678 13.9668 13.9678c7.71387 0 13.9668 -6.25391 13.9668 -13.9678v-39.7119c0 -7.71387 -6.25293 -13.9678 -13.9668 -13.9678zM88.0391 301.252l-28.085 28.0771
c-5.45508 5.45215 -5.45703 14.2949 -0.00390625 19.751c5.45117 5.45703 14.293 5.45801 19.7529 0.00390625l28.0869 -28.0771c5.4541 -5.45312 5.45605 -14.2949 0.00390625 -19.752c-2.72852 -2.72949 -6.30469 -4.09277 -9.87988 -4.09277
c-3.57324 0 -7.14746 1.36328 -9.875 4.08984zM341.657 204.369c0 7.71387 6.25098 13.9668 13.9668 13.9668h39.7109c7.71484 0 13.9668 -6.25293 13.9668 -13.9668s-6.25195 -13.9668 -13.9668 -13.9668h-39.7109c-7.71582 0 -13.9668 6.25293 -13.9668 13.9668z
M67.6631 204.369c0 -7.71387 -6.25098 -13.9668 -13.9668 -13.9668h-39.7295c-7.71484 0 -13.9668 6.25293 -13.9668 13.9668s6.25195 13.9668 13.9668 13.9668h39.7295c7.71582 0 13.9668 -6.25293 13.9668 -13.9668zM311.402 297.162
c-3.57324 0 -7.14941 1.36523 -9.87598 4.0918c-5.4541 5.45215 -5.4541 14.2959 0 19.751l28.0762 28.0752c5.4541 5.45508 14.2959 5.45508 19.7529 0c5.4541 -5.45215 5.4541 -14.2969 0 -19.751l-28.0752 -28.0752c-2.72852 -2.72852 -6.30371 -4.0918 -9.87793 -4.0918
zM88.0234 107.504c5.45508 5.4541 14.2988 5.4541 19.7529 0.000976562c5.45703 -5.45215 5.45703 -14.2959 0.00195312 -19.751l-28.0713 -28.0752c-2.72852 -2.72852 -6.30371 -4.0918 -9.87793 -4.0918c-3.57324 0 -7.14941 1.36328 -9.875 4.08984
c-5.45703 5.45312 -5.45703 14.2969 -0.00195312 19.751zM313.363 204.369c0 -59.9424 -48.7656 -108.71 -108.706 -108.71c-59.9443 0 -108.713 48.7676 -108.713 108.71c0 59.9443 48.7686 108.714 108.713 108.714c59.9404 0 108.706 -48.7695 108.706 -108.714z
M123.878 204.369c0 -44.54 36.2373 -80.7754 80.7793 -80.7754c44.5381 0 80.7725 36.2354 80.7725 80.7754c0 44.542 -36.2344 80.7793 -80.7725 80.7793c-44.542 0 -80.7793 -36.2373 -80.7793 -80.7793zM446.182 104.883
c36.3203 -0.160156 65.8184 -29.2334 65.8164 -64.9512c0 -35.8135 -29.6582 -64.9512 -66.1143 -64.9512h-126.332c-29.4316 0 -53.373 23.5508 -53.373 52.4941c0 25.6807 18.8467 47.1133 43.6504 51.6221c2.70508 36.5332 33.8428 65.4473 71.7285 65.4473
c27.5723 0 52.7148 -15.8477 64.624 -39.6611zM445.886 2.91699c21.0508 0 38.1807 16.6074 38.1807 37.0195c0 20.4102 -17.1279 37.0166 -38.1807 37.0166c-2.18457 0 -4.36719 -0.182617 -6.48438 -0.540039c-6.91309 -1.17383 -13.6299 2.97363 -15.6836 9.68359
c-5.5 17.9668 -22.834 30.5146 -42.1602 30.5146c-24.252 0 -43.9844 -19.1475 -43.9844 -42.6846c0 -1.97559 0.158203 -4.07129 0.470703 -6.22754c0.620117 -4.29004 -0.786133 -8.62793 -3.80859 -11.7354c-3.02246 -3.11035 -7.32227 -4.63379 -11.6201 -4.14062
c-1.2666 0.145508 -2.24023 0.214844 -3.06152 0.214844c-14.0264 0 -25.4385 -11.0195 -25.4385 -24.5615c0 -13.543 11.4121 -24.5596 25.4385 -24.5596h126.332z" />
    <glyph glyph-name="uniF104" unicode="&#xf104;" 
d="M381.418 276.214c72.0029 0 130.582 -57.4219 130.582 -128.005c0 -70.5811 -58.5791 -128.005 -130.582 -128.005h-278.974c-56.4883 0 -102.444 45.082 -102.444 100.497c0 53.2881 42.5 97.0264 95.9922 100.304
c-0.0146484 0.758789 -0.0205078 1.51367 -0.0205078 2.26367c0 77.4883 64.3281 140.527 143.399 140.527c31.417 0 61.2461 -9.77734 86.2627 -28.2764c20.7158 -15.3193 36.9707 -36.167 46.6855 -59.6162c3.0293 0.206055 6.06641 0.310547 9.09863 0.310547z
M381.418 51.0469c54.9961 0 99.7393 43.5859 99.7373 97.1621c0 53.5762 -44.7432 97.1641 -99.7393 97.1641c-5.66699 0 -11.3516 -0.472656 -16.8955 -1.4043c-7.64746 -1.29785 -15.0371 3.29199 -17.3027 10.6943c-14.1055 46.0977 -58.4541 78.292 -107.847 78.292
c-62.0645 0 -112.557 -49.2051 -112.557 -109.685c0 -5.12793 0.40332 -10.4902 1.19922 -15.9395c0.692383 -4.74121 -0.857422 -9.53418 -4.19727 -12.9727c-3.33691 -3.4375 -8.08887 -5.13184 -12.8447 -4.5752c-3.38672 0.394531 -6.09473 0.578125 -8.52734 0.578125
c-39.4814 0 -71.6016 -31.25 -71.6016 -69.6602c0 -38.4082 32.1201 -69.6543 71.6016 -69.6543h278.974z" />
    <glyph glyph-name="uniF113" unicode="&#xf113;" 
d="M508.919 35.5752c5.20801 -7.12109 3.65625 -17.1133 -3.46484 -22.3223c-7.12012 -5.20801 -17.1152 -3.6543 -22.3213 3.4668l-74.4043 101.759c-13.3906 18.3145 -34.4482 29.4443 -56.3271 29.7734c-0.757812 0.00976562 -1.52148 0.0117188 -2.28809 0.000976562
l-149.968 -2.17969c-3.05371 -0.0449219 -5.00586 -1.66406 -5.89648 -2.625c-0.891602 -0.959961 -2.36133 -3.02734 -2.17773 -6.07715c0.25293 -4.23145 3.77344 -7.62012 8.01172 -7.71484l93.8809 -2.08594c10.6123 -0.236328 20.748 -4.91699 27.8096 -12.8418
c7.06055 -7.9248 10.5449 -18.5303 9.56055 -29.0986c-1.83008 -19.6377 -18.5645 -34.8262 -38.2256 -34.8281c-0.199219 0 -0.394531 0.00195312 -0.59375 0.00488281l-107.854 1.6748c-13.1484 0.204102 -25.9834 4.91699 -36.1416 13.2715l-95.5029 78.5615
c-5.23926 4.30762 -12.9707 3.7998 -17.6006 -1.1582c-2.35742 -2.52246 -3.58594 -5.81152 -3.45996 -9.26074c0.125 -3.4502 1.58984 -6.6416 4.12305 -8.98633l121.41 -112.405c9.38281 -8.6875 21.5908 -13.707 34.3711 -14.1338l180.316 -6.01953
c8.81641 -0.293945 15.7246 -7.67969 15.4307 -16.4971c-0.289062 -8.63379 -7.37988 -15.4385 -15.9541 -15.4385c-0.180664 0 -0.360352 0.00292969 -0.542969 0.00878906l-180.317 6.02051c-20.4541 0.681641 -39.9893 8.71484 -55.0078 22.6191l-121.411 112.407
c-8.81445 8.15918 -13.9092 19.2637 -14.3447 31.2666s3.83887 23.4463 12.0361 32.2256c16.1123 17.2529 43.0127 19.0225 61.2432 4.02344l95.5039 -78.5596c4.59277 -3.77832 10.3975 -5.91016 16.3438 -6.00293l107.854 -1.67383
c0.0332031 0 0.0673828 -0.000976562 0.0996094 -0.000976562c3.30078 0 6.1084 2.5498 6.41602 5.84473c0.226562 2.42969 -0.908203 4.10449 -1.60449 4.88574c-0.696289 0.782227 -2.22852 2.10156 -4.66699 2.15527l-93.8809 2.08594
c-18.292 0.407227 -33.8369 13.3604 -38.0996 30.6201c-23.0596 12.5498 -42.6523 30.6689 -56.9941 52.8555c-16.416 25.3916 -25.0918 54.8613 -25.0918 85.2217c0 86.6641 70.5059 157.171 157.17 157.171c86.665 0 157.171 -70.5068 157.171 -157.171
c0 -31.7402 -9.25684 -61.8564 -26.5117 -87.4668c26.5674 -4.25684 51.1025 -19.1914 67.498 -41.6162zM199.681 178.015l26.0254 0.37793v6.10938c-20.7451 4.83789 -36.25 23.4688 -36.25 45.665c0 5.87988 4.7666 10.6484 10.6484 10.6484
c5.88086 0 10.6484 -4.76855 10.6484 -10.6484c0 -10.3184 6.13867 -19.2246 14.9531 -23.2734v50.1113c-20.7451 4.83691 -36.25 23.4678 -36.25 45.6641c0 22.1973 15.5049 40.8281 36.25 45.665v7.38184c0 5.87988 4.76758 10.6484 10.6484 10.6484
s10.6484 -4.76855 10.6484 -10.6484v-7.38184c20.7451 -4.83691 36.251 -23.4678 36.251 -45.665c0 -5.87988 -4.76758 -10.6484 -10.6484 -10.6484c-5.88184 0 -10.6484 4.76855 -10.6484 10.6484c0 10.3174 -6.13867 19.2236 -14.9541 23.2734v-50.1094
c20.7451 -4.83691 36.251 -23.4678 36.251 -45.666c0 -22.1963 -15.5059 -40.8281 -36.251 -45.665v-5.80078l79.8428 1.16113c22.4463 23.3955 34.7373 53.8975 34.7373 86.5527c0 69.0498 -56.1758 125.226 -125.226 125.226
c-69.0488 0 -125.225 -56.1758 -125.225 -125.226c0 -24.1924 6.90625 -47.665 19.9736 -67.8789c9.59375 -14.8389 22.124 -27.4043 36.7607 -36.9736c0.916992 1.25781 1.90039 2.46973 2.9668 3.61816c7.42188 7.99707 17.9365 12.6758 28.8467 12.834zM225.706 279.397
v46.5459c-8.81445 -4.0498 -14.9531 -12.9561 -14.9531 -23.2734c0 -10.3184 6.13867 -19.2246 14.9531 -23.2725zM247.003 253.442v-46.5469c8.81543 4.04785 14.9541 12.9541 14.9541 23.2725s-6.13867 19.2246 -14.9541 23.2744z" />
    <glyph glyph-name="uniF105" unicode="&#xf105;" 
d="M511.043 142.586c1.71777 -4.14648 1.09473 -8.89453 -1.63379 -12.4561c-15.0244 -19.6221 -35.0576 -35.002 -57.9336 -44.4785c-17.374 -7.19629 -35.5625 -10.8184 -53.8447 -10.8184c-9.16504 0 -18.3496 0.922852 -27.4727 2.74512
c-16.5518 -30.1064 -49.0107 -50.6152 -86.2695 -50.6152h-206.801c-42.5068 0 -77.0879 33.9307 -77.0879 75.6396c0 39.7471 31.4072 72.4316 71.1465 75.4219c-0.00195312 0.204102 -0.00195312 0.407227 -0.00195312 0.611328
c0 58.0723 48.1992 105.317 107.444 105.317c31.708 0 61.2441 -14.0107 81.2871 -36.6494c9.89355 43.7998 40.3652 81.0811 83.6338 99.0029c22.876 9.47461 47.9189 12.7656 72.417 9.51172c4.44824 -0.589844 8.24609 -3.50586 9.96289 -7.65234
s1.09277 -8.89453 -1.63477 -12.458c-25.1133 -32.7969 -30.9131 -76.8311 -15.1367 -114.917c15.7754 -38.084 51.0127 -65.1172 91.9619 -70.5508c4.44824 -0.591797 8.24609 -3.50781 9.96289 -7.6543zM283.888 52.1133c40.1377 0 72.791 31.7979 72.791 70.8828
c0 39.083 -32.6533 70.8809 -72.791 70.8809c-4.13477 0 -8.28809 -0.34375 -12.3457 -1.02441c-5.85547 -0.992188 -11.5459 2.2666 -13.7334 7.6875c-0.186523 0.446289 -0.348633 0.904297 -0.483398 1.375c-10.4238 33.5117 -42.7432 56.8877 -78.7363 56.8877
c-45.377 0 -82.2939 -35.9629 -82.2939 -80.167c0 -3.74414 0.294922 -7.66504 0.876953 -11.6543c0.5625 -3.86816 -0.703125 -7.77832 -3.42578 -10.5801c-2.72461 -2.80273 -6.59277 -4.18457 -10.4775 -3.72559c-2.44824 0.287109 -4.41309 0.419922 -6.18066 0.419922
c-28.6387 0 -51.9375 -22.6523 -51.9375 -50.4932c0 -27.8398 23.2988 -50.4893 51.9375 -50.4893h206.8zM441.85 108.887c12.3652 5.12207 23.7188 12.3418 33.5557 21.2705c-40.0391 12.167 -73.2676 41.7686 -89.5215 81.0078
c-16.2568 39.2441 -13.6934 83.668 6.01758 120.586c-13.2676 -0.639648 -26.4023 -3.56055 -38.7656 -8.68262c-42.8623 -17.7529 -70.4512 -58.6123 -71.54 -104.111c0.763672 0.0166016 1.52832 0.0683594 2.29297 0.0683594
c54.0039 0 97.9414 -43.0791 97.9414 -96.0312c0 -7.39551 -0.886719 -14.5889 -2.50879 -21.5088c21.0732 -3.39941 42.4541 -0.913086 62.5283 7.40137z" />
    <glyph glyph-name="uniF116" unicode="&#xf116;" 
d="M388.015 26.0117c0 13.0371 10.5674 23.6045 23.6045 23.6045c13.0361 0 23.6045 -10.5674 23.6045 -23.6045c0 -13.0361 -10.5684 -23.6045 -23.6045 -23.6045c-13.0371 0 -23.6045 10.5684 -23.6045 23.6045zM285.017 26.0117
c0 13.0371 10.5674 23.6045 23.6045 23.6045c13.0361 0 23.6045 -10.5674 23.6045 -23.6045c0 -13.0361 -10.5684 -23.6045 -23.6045 -23.6045c-13.0371 0 -23.6045 10.5684 -23.6045 23.6045zM181.301 26.0117c0 13.0371 10.5684 23.6045 23.6045 23.6045
c13.0371 0 23.6055 -10.5674 23.6055 -23.6045c0 -13.0361 -10.5684 -23.6045 -23.6055 -23.6045c-13.0361 0 -23.6045 10.5684 -23.6045 23.6045zM78.3057 26.0117c0 13.0371 10.5674 23.6045 23.6045 23.6045c13.0361 0 23.6045 -10.5674 23.6045 -23.6045
c0 -13.0361 -10.5684 -23.6045 -23.6045 -23.6045c-13.0371 0 -23.6045 10.5684 -23.6045 23.6045zM336.729 -38.7207c0 13.0352 10.5674 23.6025 23.6025 23.6025s23.6025 -10.5674 23.6025 -23.6025s-10.5674 -23.6025 -23.6025 -23.6025
s-23.6025 10.5674 -23.6025 23.6025zM233.014 -38.7207c0 13.0352 10.5674 23.6025 23.6025 23.6025s23.6025 -10.5674 23.6025 -23.6025s-10.5674 -23.6025 -23.6025 -23.6025s-23.6025 10.5674 -23.6025 23.6025zM130.018 -38.7207
c0 13.0352 10.5674 23.6025 23.6025 23.6025s23.6025 -10.5674 23.6025 -23.6025s-10.5674 -23.6025 -23.6025 -23.6025s-23.6025 10.5674 -23.6025 23.6025zM380.669 359.263c72.417 0 131.333 -57.7676 131.333 -128.77c0 -71.0029 -58.916 -128.771 -131.33 -128.771
h-277.303c-56.998 0 -103.369 45.498 -103.369 101.427c0 53.2979 42.1143 97.125 95.3984 101.132c-0.00195312 0.274414 -0.00195312 0.548828 -0.00195312 0.820312c0 77.8691 64.6309 141.222 144.074 141.222c58.2773 0 111.121 -35.2715 133.146 -87.3037
c2.68457 0.162109 5.37109 0.243164 8.05273 0.243164zM380.669 135.444c53.8213 0 97.6064 42.6387 97.6064 95.0508c0 52.4072 -43.7871 95.0459 -97.6064 95.0459c-5.54395 0 -11.1133 -0.460938 -16.5537 -1.37402c-8.33887 -1.41211 -16.4346 3.60156 -18.9131 11.6953
c-13.8223 45.1816 -57.3018 76.7383 -105.729 76.7383c-60.8467 0 -110.35 -48.2227 -110.35 -107.496c0 -5.02051 0.395508 -10.2793 1.17578 -15.6279c0.755859 -5.1875 -0.939453 -10.4297 -4.59277 -14.1865c-3.65137 -3.75684 -8.83887 -5.60742 -14.0479 -4.99609
c-3.28418 0.381836 -5.91992 0.5625 -8.28906 0.5625c-38.4033 0 -69.6445 -30.375 -69.6445 -67.707c0 -37.333 31.2412 -67.7051 69.6445 -67.7051h277.3z" />
  </font>
</defs>
</svg>
